<?xml version="1.0" standalone="no"?>
<!DOCTYPE svg PUBLIC "-//W3C//DTD SVG 1.1//EN" "http://www.w3.org/Graphics/SVG/1.1/DTD/svg11.dtd" >
<svg xmlns="http://www.w3.org/2000/svg">
<metadata>Generated by IcoMoon</metadata>
<defs>
<font id="icomoon" horiz-adv-x="1024">
<font-face units-per-em="1024" ascent="960" descent="-64" />
<missing-glyph horiz-adv-x="1024" />
<glyph unicode="&#x20;" horiz-adv-x="512" d="" />
<glyph unicode="&#xe900;" glyph-name="angry-face" d="M472.747 872.747c-79.957-7.040-158.848-38.571-225.28-89.984-18.645-14.464-55.765-51.584-70.229-70.229-76.8-99.243-106.88-221.653-84.309-343.296 12.373-66.816 40.917-129.707 84.309-185.771 14.464-18.645 51.584-55.765 70.229-70.229 104.149-80.597 232.661-109.483 360.107-80.853 106.112 23.851 202.752 91.477 262.187 183.509 34.389 53.205 54.741 107.819 64.896 174.080 4.181 27.349 4.181 88.704 0 116.053-12.16 79.275-39.936 144.555-87.893 206.507-14.464 18.645-51.584 55.765-70.229 70.229-88.192 68.224-194.304 99.669-303.787 89.984zM547.499 787.541c68.807-7.896 130.189-34.717 180.209-75.060l-0.668 0.521c15.104-12.203 43.819-41.472 54.869-55.936 44.231-57.29 71.031-130.011 71.424-208.976v-0.091c-0.392-81.758-29.112-156.733-76.84-215.689l0.509 0.649c-12.203-15.104-41.472-43.819-55.936-54.869-57.29-44.231-130.011-71.031-208.976-71.424h-0.091c-79.055 0.393-151.776 27.193-209.872 72.022l0.806-0.598c-14.464 11.051-43.733 39.765-55.936 54.869-47.432 58.101-76.17 133.086-76.17 214.783 0 53.965 12.539 105.002 34.863 150.355l-0.89-2.002c16.29 34.347 37.156 63.727 62.256 88.88l-0.006-0.006c27.097 28.551 59.129 52.099 94.782 69.339l1.943 0.847c43.554 21.541 94.83 34.144 149.050 34.144 12.211 0 24.273-0.639 36.155-1.886l-1.482 0.126zM370.048 573.397c-15.573-4.992-28.715-23.339-28.715-40.064 0-24.533 23.339-45.013 47.957-42.112 41.216 4.864 51.371 61.013 14.464 80-8.747 4.48-23.509 5.461-33.707 2.176zM626.048 573.397c-15.573-4.992-28.715-23.339-28.715-40.064 0-24.533 23.339-45.013 47.957-42.112 41.216 4.864 51.371 61.013 14.464 80-8.747 4.48-23.509 5.461-33.707 2.176zM493.227 395.776c-16.568-2.329-31.243-5.668-45.438-10.096l2.003 0.538c-14.421-4.907-38.571-17.493-50.901-26.581-26.496-19.499-35.371-32.256-35.328-50.731 0.043-13.013 4.011-21.803 14.037-31.019 8.576-7.851 16.555-10.795 29.44-10.752 10.965 0.043 19.456 4.139 33.28 16.128 20.651 17.92 40.448 26.24 65.707 27.691 1.988 0.135 4.308 0.211 6.647 0.211 26.229 0 50.205-9.644 68.576-25.58l-0.13 0.11c18.901-16.341 21.845-17.749 37.419-17.707 15.275 0 20.779 2.091 30.080 11.392 8.192 8.192 11.776 17.451 11.819 30.421 0.085 17.792-7.509 28.885-32.512 47.659-21.815 16.465-47.828 28.648-76.103 34.752l-1.295 0.234c-13.611 2.816-46.123 4.693-57.301 3.328z" />
<glyph unicode="&#xe901;" glyph-name="home-outline" d="M502.997 872.832c-3.584-0.853-8.576-2.645-11.093-4.011-2.56-1.365-93.867-91.776-202.88-200.96-214.059-214.4-202.496-201.813-202.453-220.629 0.093-16.555 9.953-30.785 24.105-37.228l0.258-0.105c6.357-2.901 12.117-3.627 33.621-4.224l25.941-0.768 0.555-137.6c0.597-134.528 0.683-137.899 4.267-150.656 12.766-45.317 48.412-80.029 93.359-91.246l0.891-0.188c11.989-2.816 28.715-3.029 242.432-3.029s230.443 0.213 242.432 3.029c45.811 11.456 81.435 46.146 94.029 90.52l0.222 0.914c3.584 12.757 3.669 16.085 4.267 150.656l0.555 137.6 25.941 0.768c21.504 0.597 27.264 1.323 33.621 4.224 14.406 6.493 24.257 20.717 24.277 37.245v0.003c0.171 18.901 11.819 6.187-202.368 220.757-141.824 142.080-200.192 199.467-205.056 201.643-5.394 2.607-11.73 4.131-18.421 4.131-3.009 0-5.945-0.308-8.78-0.894l0.279 0.048zM654.507 630.485c127.957-128.128 141.355-141.995 138.368-143.787-8.021-4.864-17.195-14.549-20.437-21.632-3.541-7.595-3.584-9.856-4.437-168.96l-0.853-161.28-4.48-6.827c-4.821-7.339-9.557-11.947-17.707-17.195-4.736-3.029-9.088-3.328-55.723-3.797l-50.645-0.512-0.768 66.219c-0.811 72.661-1.067 74.539-11.691 94.549-8.374 14.505-19.731 26.408-33.306 35.171l-0.401 0.242c-19.413 12.544-35.029 15.531-80.427 15.531s-61.013-2.987-80.384-15.531c-19.686-12.583-34.423-31.414-41.534-53.654l-0.194-0.703c-2.603-8.064-3.115-18.603-3.755-75.605l-0.768-66.219-50.603 0.512c-46.635 0.469-50.987 0.768-55.723 3.797-7.214 4.369-13.152 10.142-17.579 16.984l-0.128 0.211-4.48 6.827-0.853 161.28c-0.853 159.104-0.896 161.365-4.437 168.96-3.243 7.083-12.416 16.768-20.437 21.632-2.987 1.792 10.411 15.659 138.368 143.787 47.064 47.359 93.495 93.56 140.183 139.501l2.323 2.28c0.469 0 64.597-63.829 142.507-141.781zM549.163 230.315l3.797-2.688v-120.96h-81.92v120.96l3.797 2.688c3.115 2.176 9.728 2.645 37.163 2.645s34.048-0.469 37.163-2.645z" />
<glyph unicode="&#xe902;" glyph-name="basket" d="M111.77 866.304c-29.082-13.466-28.314-56.832 1.229-69.222 4.966-2.048 13.158-2.611 37.12-2.611 16.947 0 30.771-0.41 30.771-0.922s6.195-37.939 13.773-83.2c7.578-45.261 14.387-86.886 15.206-92.518s12.646-77.056 26.368-158.72c22.17-132.557 25.446-149.862 30.31-161.28 7.578-17.715 13.67-27.802 25.6-42.394l10.189-12.493-7.475-7.987c-14.165-14.81-24.742-33.168-30.263-53.603l-0.201-0.874c-4.454-17.613-4.454-44.8 0.102-62.515 10.752-42.086 46.029-77.363 88.115-88.166 17.869-4.557 44.902-4.557 62.771 0 43.010 11.946 76.194 45.147 87.906 87.286l0.209 0.881c4.608 17.92 4.608 44.902-0.051 62.925-1.004 3.448-2.175 8.431-3.164 13.479l-0.215 1.318c0 0.768 24.576 1.434 54.579 1.434 30.054 0 54.63-0.666 54.63-1.434s-1.536-7.424-3.43-14.797c-4.608-18.022-4.608-45.005-0.051-62.925 11.959-43.015 45.151-76.207 87.284-87.956l0.882-0.21c28.109-7.168 63.027-3.379 87.552 9.523 30.9 16.271 53.819 44.187 63.126 77.761l0.209 0.882c4.557 17.715 4.557 44.902 0.051 62.464-3.992 14.457-9.807 27.11-17.314 38.554l0.315-0.512-3.379 5.12 13.466 10.547c18.074 14.234 32.614 32.87 43.622 56.013l8.96 18.739 21.504 151.040c11.776 83.098 21.453 155.136 21.453 160.102-0.007 15.066-9.204 27.982-22.289 33.447l-0.239 0.089c-5.683 2.355-40.090 2.662-317.85 2.662h-311.501l-0.87 3.84c-0.461 2.099-7.424 43.366-15.462 91.699-7.987 48.333-15.36 90.47-16.384 93.594-3.781 9.2-10.572 16.522-19.125 20.886l-0.229 0.106c-6.144 2.816-12.186 3.123-58.931 3.123-47.053 0-52.685-0.307-58.88-3.174zM851.61 579.789c0-0.768-8.038-57.651-17.869-126.464-16.538-115.661-18.227-125.696-22.63-133.734-10.547-19.405-30.72-35.84-52.48-42.752l-11.981-3.789h-341.299l-11.981 3.789c-22.62 7.559-40.973 22.773-52.391 42.503l-0.243 0.454c-4.352 8.038-6.912 21.299-25.702 134.246-11.52 68.966-20.531 125.747-20.070 126.208 1.434 1.434 556.646 0.973 556.646-0.461zM400.947 192.461c16.947-6.042 29.491-24.371 29.491-43.11 0-31.693-30.515-53.504-61.798-44.237-10.496 3.123-25.754 18.33-28.877 28.877-8.346 28.109 8.141 55.962 36.301 61.286 8.346 1.587 14.541 0.87 24.883-2.816zM744.96 191.334c36.147-17.101 35.379-68.915-1.331-84.685-18.074-7.782-36.506-4.096-50.79 10.189-6.502 6.554-10.138 11.827-11.725 17.152-9.37 31.59 12.083 61.389 44.237 61.389 8.090 0 13.363-1.075 19.61-4.045z" />
<glyph unicode="&#xe903;" glyph-name="camera" d="M363.947 829.397c-28.629-6.187-54.571-31.445-62.165-60.416-1.579-6.187-2.987-15.445-3.072-20.608-0.341-17.365-7.723-30.464-21.845-38.784-8.021-4.693-8.363-4.736-47.317-5.803-34.603-0.939-40.875-1.536-52.949-5.163-41.671-13.242-73.743-45.665-86.242-86.626l-0.243-0.926-3.925-13.739v-426.667l3.925-13.739c12.998-42.417 45.733-75.152 87.218-87.903l0.931-0.246 13.739-3.925h640l13.739 3.925c42.417 12.998 75.152 45.733 87.903 87.218l0.246 0.931 3.925 13.739v426.667l-3.925 13.739c-11.904 41.515-47.104 76.629-88.149 88.021-11.605 3.2-19.669 3.925-52.267 4.779l-38.528 0.981-8.405 5.163c-10.624 6.571-18.987 18.688-20.267 29.44-4.693 39.424-8.619 49.323-26.411 66.987-13.312 13.141-24.832 19.712-40.619 23.040-16.512 3.499-279.125 3.456-295.296-0.085zM640.768 734.464c5.314-52.366 41.343-95.093 89.585-110.176l0.911-0.246c12.075-3.627 18.347-4.224 52.949-5.163 39.125-1.067 39.296-1.067 47.445-5.888 9.301-5.461 17.451-15.744 20.011-25.173 1.109-4.224 1.579-75.648 1.28-207.531l-0.469-201.088-4.736-8.064c-5.205-8.884-13.166-15.672-22.692-19.27l-0.305-0.101c-9.515-3.371-615.979-3.371-625.493 0-9.832 3.699-17.793 10.487-22.884 19.162l-0.113 0.208-4.736 8.064-0.469 201.088c-0.299 131.883 0.171 203.307 1.28 207.531 2.56 9.429 10.709 19.712 20.011 25.173 8.149 4.821 8.32 4.821 47.445 5.888 34.603 0.939 40.875 1.536 52.949 5.163 49.153 15.329 85.182 58.055 90.451 109.877l0.045 0.544 1.195 12.203h255.147l1.195-12.203zM484.608 573.397c-53.995-9.275-98.643-42.748-123.028-88.631l-0.449-0.926c-8.445-15.235-14.535-33.003-17.226-51.867l-0.097-0.826c-1.466-7.761-2.304-16.689-2.304-25.813s0.838-18.052 2.442-26.712l-0.138 0.898c9.472-62.677 54.016-115.413 115.072-136.192 12.587-4.267 39.467-8.661 53.12-8.661s40.533 4.395 53.12 8.661c41.984 14.293 78.123 45.141 97.749 83.499 8.445 15.235 14.535 33.003 17.226 51.867l0.097 0.826c1.466 7.761 2.304 16.689 2.304 25.813s-0.838 18.052-2.442 26.712l0.138-0.898c-8.643 54.717-42.343 100.087-88.759 124.61l-0.926 0.446c-15.235 8.445-33.003 14.535-51.867 17.226l-0.826 0.097c-7.884 1.385-16.962 2.177-26.225 2.177-9.532 0-18.868-0.838-27.939-2.446l0.959 0.141zM532.992 488.107c30.848-8.021 56.875-35.243 62.592-65.536 5.632-29.568-2.475-55.936-23.68-77.141-17.195-17.195-36.608-25.429-59.904-25.429s-42.709 8.235-59.904 25.429c-17.195 17.195-25.429 36.608-25.429 59.904s8.235 42.709 25.429 59.904c17.237 17.28 35.541 25.088 59.136 25.301 7.716-0.004 15.223-0.89 22.428-2.563l-0.668 0.131z" />
<glyph unicode="&#xe904;" glyph-name="car-fast" d="M98.688 661.248c-1.579-0.896-3.712-4.267-4.779-7.509-0.553-1.427-0.873-3.078-0.873-4.804 0-6.085 3.981-11.241 9.48-13.004l0.097-0.027c8.533-2.944 102.4-2.56 109.696 0.512 5.049 2.279 8.499 7.27 8.499 13.066 0 4.531-2.109 8.57-5.398 11.189l-0.029 0.022c-3.584 2.773-112.043 3.285-116.693 0.555zM367.701 613.461c-18.522-2.929-35.153-8.922-50.124-17.486l0.716 0.377c-14.208-8.576-26.624-19.968-51.328-47.147l-22.059-24.277-44.544-0.043c-49.109-0.085-61.611-1.877-79.744-11.52-12.757-6.784-33.707-28.117-40.149-40.96-10.795-21.419-12.544-32.256-11.904-73.6 0.64-41.856 1.835-46.635 14.421-58.667 11.52-11.008 16.171-12.117 54.101-12.971 29.397-0.64 33.963-1.109 34.688-3.541 2.731-9.216 11.52-24.533 18.731-32.512 19.328-21.504 44.8-30.677 75.733-27.221 26.155 2.901 51.371 21.12 63.915 46.123 3.328 6.699 6.059 13.184 6.059 14.464 0 1.963 28.885 2.347 179.243 2.347 169.259 0 179.328-0.171 180.181-2.987 2.859-9.429 11.52-24.619 18.389-32.256 19.669-21.845 45.184-31.147 76.16-27.691 26.155 2.901 51.371 21.12 63.915 46.123 3.328 6.699 6.059 13.184 6.059 14.464 0 1.92 9.344 2.347 53.077 2.347h53.077l-0.768 34.56c-0.853 38.741-3.285 51.584-14.037 74.283-16.128 34.005-38.315 56.619-71.723 73.088-30.123 14.805-31.403 14.976-124.416 15.659l-81.749 0.555-35.499 34.56c-37.419 36.352-47.957 44.245-68.096 50.987-10.795 3.627-13.653 3.755-100.693 4.053-49.28 0.213-95.019-0.299-101.632-1.109zM33.109 604.288c-8.661-3.755-10.624-16.256-3.541-22.869 3.883-3.669 4.779-3.712 59.392-3.712 53.376 0 55.595 0.128 59.179 3.456 7.765 7.253 6.272 18.645-3.115 23.381-6.272 3.157-104.576 2.944-111.915-0.256zM450.56 555.52v-30.72h-165.888l8.576 9.813c28.117 32.171 47.829 45.312 75.008 49.877 4.437 0.725 24.747 1.451 45.184 1.536l37.12 0.213v-30.72zM562.347 581.973c13.653-4.907 24.192-12.928 46.891-35.755l21.333-21.419h-149.291v61.824l36.267-0.811c29.013-0.64 37.973-1.408 44.8-3.84zM351.573 425.728v-70.101l-6.272 0.555c-6.187 0.512-6.272 0.597-8.405 11.136-6.699 33.024-37.717 61.44-70.784 64.896-29.995 3.115-52.821-4.437-72.32-23.936-11.136-10.693-19.246-24.458-22.969-39.931l-0.114-0.559-2.816-11.093h-30.080c-29.44 0-30.123 0.085-34.432 4.139-7.595 7.125-5.973 8.277 12.501 8.917 15.915 0.555 17.323 0.896 23.381 5.803 9.131 7.424 12.459 12.459 13.995 21.248 2.987 16.853-3.925 31.403-18.475 38.827-5.973 3.072-10.368 3.84-21.504 3.84h-14.037l1.792 6.4c5.931 21.589 25.728 41.173 47.659 47.104 7.509 2.048 26.837 2.517 106.027 2.645l96.853 0.171v-70.059zM832 494.165c5.376-1.109 2.901-1.451-11.52-1.579l-18.347-0.213v-7.381c0-10.88 3.285-26.581 7.083-34.133 4.395-8.533 16.341-20.437 24.96-24.875 10.368-5.248 25.387-6.955 61.355-6.997h32.811l2.56-8.96c4.309-14.891 6.059-26.667 6.059-40.789v-13.483l-73.941 0.939-2.176 10.624c-6.784 33.28-38.357 62.123-71.211 65.109-30.208 2.688-52.651-4.864-72.107-24.363-11.861-11.819-19.627-25.813-23.168-41.643-1.152-5.077-2.901-9.557-3.883-9.941-1.024-0.384-29.355-0.469-62.976-0.256l-61.099 0.469 14.677 11.648c23.418 18.763 41.793 42.863 53.407 70.505l0.438 1.175c5.76 13.781 9.088 26.709 12.715 49.365l1.067 6.4 88.235-0.085c48.512-0.085 91.307-0.768 95.061-1.536zM618.069 486.443c-1.217-8.088-2.853-15.173-4.973-22.047l0.28 1.055c-14.080-48.555-52.693-86.443-104.277-102.229-14.763-4.523-15.915-4.608-71.765-5.291l-56.747-0.683v66.731c0 36.693 0.213 66.816 0.427 66.987 0.64 0.427 184.149 2.475 212.907 2.347l24.747-0.085-0.597-6.784zM886.613 458.795c3.755-1.963 8.363-5.291 10.24-7.381l3.413-3.755-23.893 0.597c-21.504 0.555-24.533 0.981-30.336 4.608-3.267 1.947-6.006 4.427-8.182 7.35l-0.053 0.074c-1.792 3.371-1.451 3.413 20.053 2.773 18.176-0.555 23.083-1.28 28.757-4.267zM124.587 407.083c1.408-2.688 1.067-4.096-1.664-6.827-2.688-2.688-5.675-3.456-13.696-3.456h-10.24v13.653h11.904c10.069 0 12.16-0.512 13.696-3.371zM271.36 401.493c12.117-3.669 26.965-16.299 32.981-28.075 4.907-9.515 6.784-24.064 4.565-35.285-2.731-13.995-6.613-20.992-16.939-30.635-9.64-9.583-22.927-15.506-37.597-15.506-3.635 0-7.186 0.364-10.617 1.057l0.342-0.058c-12.38 2.056-23.065 8.164-30.89 16.889l-0.044 0.050c-9.507 9.908-15.36 23.385-15.36 38.229s5.854 28.321 15.379 38.248l-0.018-0.019c16 16.427 36.395 21.717 58.197 15.104zM795.307 401.493c7.979-2.389 13.056-5.632 21.888-13.952 9.173-8.619 13.013-15.872 15.744-29.739 3.755-19.115-2.091-36.352-17.024-50.304-9.64-9.583-22.927-15.506-37.597-15.506-3.635 0-7.186 0.364-10.617 1.057l0.342-0.058c-12.38 2.056-23.065 8.164-30.89 16.889l-0.044 0.050c-9.507 9.908-15.36 23.385-15.36 38.229s5.854 28.321 15.379 38.248l-0.018-0.019c16 16.427 36.395 21.717 58.197 15.104z" />
<glyph unicode="&#xe905;" glyph-name="car-front" d="M331.947 829.483c-29.696-5.589-51.584-17.493-72.619-39.509-21.248-22.229-27.221-35.584-41.003-91.435l-9.131-36.992-31.957-0.555c-29.141-0.469-32.341-0.811-36.651-4.011-11.989-9.003-15.445-21.248-9.344-33.493 6.443-13.056 9.259-14.123 39.125-14.763 19.2-0.384 25.984-1.067 25.429-2.56-0.427-1.109-2.56-9.557-4.779-18.816l-4.053-16.811-10.283-5.163c-13.184-6.699-32.683-26.24-38.741-38.869-10.368-21.589-9.941-11.947-9.899-226.389 0.043-123.093 0.683-198.741 1.749-203.349 4.181-18.133 18.005-36.693 33.835-45.312 14.421-7.808 27.435-9.6 71.040-9.6 43.52 0 56.619 1.792 70.912 9.557 11.605 6.315 22.912 18.901 29.483 32.683l5.419 11.477 1.109 86.187h341.077l0.043-38.827c0.043-21.376 0.811-42.112 1.749-46.165 4.181-18.133 18.005-36.693 33.835-45.312 14.421-7.808 27.435-9.6 71.040-9.6 43.52 0 56.619 1.792 70.912 9.557 11.605 6.315 22.912 18.901 29.483 32.683l5.419 11.477 0.469 200.149c0.512 219.52 0.939 209.024-9.6 230.784-6.315 13.099-24.107 31.019-38.528 38.827l-11.776 6.4-4.821 17.067c-1.289 3.883-2.963 9.985-4.447 16.161l-0.417 2.057c0 0.64 12.075 1.408 26.88 1.707 30.677 0.64 33.365 1.621 39.851 14.763 6.101 12.245 2.645 24.491-9.344 33.493-4.309 3.2-7.808 3.584-39.083 4.352l-34.347 0.853-12.373 42.965c-6.784 23.595-14.421 47.019-16.939 52.053-13.429 27.033-35.112 48.276-61.71 60.804l-0.797 0.337c-28.587 13.611-14.336 12.672-204.459 13.056-134.571 0.256-172.288-0.128-181.76-1.92zM686.507 774.485c19.84-7.552 35.072-20.437 44.373-37.589 3.371-6.187 39.125-126.165 46.549-156.203l1.195-4.693h-267.307c-158.72 0-267.264 0.64-267.264 1.536 0 6.656 36.821 149.632 40.448 157.184 9.643 19.968 34.944 38.869 56.832 42.496 5.248 0.853 81.195 1.408 172.373 1.28l162.987-0.299 9.813-3.712zM821.76 518.571c7.893-4.267 12.8-9.259 17.28-17.664 3.029-5.675 3.243-12.843 3.669-136.107l0.469-130.133h-662.272v126.72c0 79.616 0.64 129.024 1.749 132.907 2.529 8.327 7.306 15.339 13.624 20.55l0.072 0.058c11.392 8.448-3.072 8.107 318.208 7.68l300.373-0.341 6.827-3.669zM283.435 445.056c-15.019-5.291-27.435-23.253-27.435-39.723 0-10.325 5.077-22.229 12.757-29.909 7.619-7.731 18.205-12.521 29.909-12.521s22.29 4.79 29.904 12.516l0.005 0.005c32.128 32.128-2.048 84.864-45.141 69.632zM710.101 445.056c-15.019-5.291-27.435-23.253-27.435-39.723 0-22.485 20.181-42.667 42.667-42.667 10.325 0 22.229 5.077 29.909 12.757 32.128 32.128-2.048 84.864-45.141 69.632zM419.072 358.784c-16.853-9.557-17.963-32.768-2.091-44.587 4.736-3.541 5.973-3.584 95.019-3.584s90.283 0.043 95.019 3.584c6.757 4.96 11.094 12.874 11.094 21.8 0 0.076 0 0.152-0.001 0.228v-0.012c0.007 0.212 0.010 0.461 0.010 0.712 0 9.434-5.288 17.633-13.062 21.794l-0.132 0.065c-6.741 3.84-6.869 3.84-92.928 3.84s-86.187 0-92.928-3.84zM288.427 146.731c0-37.248-1.28-44.715-8.277-48.469-4.565-2.432-86.272-2.517-90.795-0.085-7.467 3.968-8.448 9.643-8.448 47.659v35.925h107.52v-35.029zM843.093 146.731c0-37.248-1.28-44.715-8.277-48.469-4.565-2.432-86.272-2.517-90.795-0.085-7.467 3.968-8.448 9.643-8.448 47.659v35.925h107.52v-35.029z" />
<glyph unicode="&#xe906;" glyph-name="car-wash" d="M269.653 854.613c-12.075-6.059-50.816-71.723-60.416-102.485-9.131-29.184-2.859-55.040 18.517-76.373 30.635-30.635 77.056-30.635 107.691 0 21.419 21.376 27.648 47.232 18.517 76.373-6.997 22.229-33.963 72.107-51.371 94.976-4.858 6.344-12.434 10.394-20.957 10.394-4.374 0-8.498-1.067-12.127-2.954l0.146 0.069zM500.053 854.613c-12.075-6.059-50.816-71.723-60.416-102.485-9.131-29.184-2.859-55.040 18.517-76.373 30.635-30.635 77.056-30.635 107.691 0 21.419 21.376 27.648 47.232 18.517 76.373-6.997 22.229-33.963 72.107-51.371 94.976-4.858 6.344-12.434 10.394-20.957 10.394-4.374 0-8.498-1.067-12.127-2.954l0.146 0.069zM730.453 854.613c-12.075-6.059-50.816-71.723-60.416-102.485-9.131-29.184-2.859-55.040 18.517-76.373 30.635-30.635 77.056-30.635 107.691 0 21.419 21.376 27.648 47.232 18.517 76.373-6.997 22.229-33.963 72.107-51.371 94.976-4.858 6.344-12.434 10.394-20.957 10.394-4.374 0-8.498-1.067-12.127-2.954l0.146 0.069zM294.869 760.192c12.928-25.515 14.123-30.933 9.003-41.472-3.925-8.107-13.909-14.72-22.272-14.72-8.149 0-18.389 6.613-22.101 14.293-1.666 3.19-2.892 6.897-3.475 10.815l-0.024 0.193c0 8.789 22.443 53.973 26.155 52.736 1.109-0.384 6.827-10.197 12.715-21.845zM525.269 760.192c12.928-25.515 14.123-30.933 9.003-41.472-3.925-8.107-13.909-14.72-22.272-14.72-8.149 0-18.389 6.613-22.101 14.293-1.666 3.19-2.892 6.897-3.475 10.815l-0.024 0.193c0 8.789 22.443 53.973 26.155 52.736 1.109-0.384 6.827-10.197 12.715-21.845zM755.669 760.192c12.928-25.515 14.123-30.933 9.003-41.472-3.925-8.107-13.909-14.72-22.272-14.72-8.149 0-18.389 6.613-22.101 14.293-1.666 3.19-2.892 6.897-3.475 10.815l-0.024 0.193c0 8.789 22.443 53.973 26.155 52.736 1.109-0.384 6.827-10.197 12.715-21.845zM357.547 599.125c-34.693-6.827-63.855-26.599-82.831-53.968l-0.284-0.432c-9.344-13.696-12.672-21.845-27.051-66.517l-12.544-38.912-13.44-6.997c-24.747-12.885-47.573-38.187-58.325-64.597-9.259-22.827-9.472-26.197-9.472-148.736 0.043-120.96 0.043-121.131 8.704-139.179 2.133-4.437 8.533-12.757 14.251-18.432 17.621-17.664 32.939-22.912 66.645-22.912s49.024 5.248 66.645 22.912c16.768 16.725 22.912 33.323 22.955 61.952v17.493h358.4v-17.493c0.043-28.629 6.187-45.227 22.955-61.952 17.621-17.664 32.939-22.912 66.645-22.912s49.024 5.248 66.645 22.912c10.923 10.88 16.597 20.736 20.523 35.499 3.669 13.739 3.541 229.931-0.128 247.723-8.212 38.050-32.135 69.33-64.484 87.255l-0.668 0.34-13.568 7.211-12.501 38.869c-14.379 44.629-17.707 52.779-27.051 66.475-19.383 28.040-48.882 47.903-83.116 54.359l-0.809 0.127c-18.091 3.2-290.304 3.157-308.096-0.085zM659.115 548.48c12.544-2.645 27.605-10.581 37.248-19.627 10.667-9.941 18.475-25.259 27.349-53.547 3.968-12.672 7.552-23.979 8.021-25.173 0.64-1.707-43.989-2.133-219.563-2.133-121.173 0-220.331 0.256-220.331 0.555s4.139 13.269 9.173 28.8c9.856 30.208 16.256 42.325 28.032 52.949 8.576 7.68 22.144 14.848 33.621 17.707 11.648 2.859 283.008 3.328 296.448 0.469zM758.101 394.923c21.717-4.565 42.283-20.352 52.224-40.149 8.277-16.512 8.875-22.741 8.875-95.445v-67.328h-614.4v67.328c0 72.704 0.597 78.933 8.875 95.445 10.294 19.536 28.094 33.946 49.463 39.517l0.542 0.12c11.691 2.859 480.896 3.328 494.421 0.512zM297.813 355.243c-20.565-6.827-35.029-18.944-42.965-36.096-4.011-8.661-4.736-12.459-4.736-24.747 0-12.075 0.725-16.128 4.437-24.107 8.277-17.749 21.077-28.928 41.003-35.84 9.045-3.115 14.72-3.755 34.688-3.84 27.477-0.085 40.107 2.133 54.315 9.643 12.288 6.485 19.2 14.635 22.741 26.709 9.216 31.531-14.507 66.859-57.429 85.461-11.477 4.992-40.747 6.571-52.053 2.816zM685.227 356.395c-25.813-6.912-54.485-29.525-65.109-51.243-4.053-8.32-4.821-12.075-4.821-23.595-0.043-17.28 4.693-27.691 16.939-36.907 14.464-10.923 41.344-16.341 70.912-14.293 33.792 2.389 54.699 14.976 66.304 39.936 3.712 7.979 4.437 12.032 4.437 24.107 0 12.245-0.725 16.085-4.736 24.747-6.783 14.198-18.127 25.308-32.102 31.621l-0.41 0.166c-11.051 5.163-13.781 5.675-30.080 6.016-2.021 0.097-4.389 0.153-6.771 0.153-5.128 0-10.196-0.257-15.193-0.758l0.63 0.051zM342.869 313.131c11.477-6.101 25.045-19.413 26.752-26.283 3.285-13.184-3.115-16.768-31.787-17.664-25.173-0.811-33.536 0.939-42.283 8.96-5.888 5.419-6.272 6.357-6.272 16.085 0 9.259 0.555 10.88 5.248 15.616 11.691 11.691 30.251 12.928 48.341 3.285zM715.691 318.165c4.942-1.783 9.197-4.348 12.84-7.587l-0.040 0.035c5.888-5.376 6.229-6.315 6.229-16.213s-0.341-10.837-6.272-16.256c-3.808-3.326-8.329-5.947-13.292-7.6l-0.276-0.080c-9.728-2.645-48.512-1.408-54.869 1.707-9.259 4.565-8.277 14.976 2.56 26.709 15.531 16.853 35.627 24.149 53.12 19.285zM281.6 125.184c0-13.568-0.555-16.64-4.224-22.827-6.144-10.496-12.203-12.757-34.176-12.757s-28.032 2.261-34.176 12.757c-3.669 6.187-4.224 9.259-4.224 22.827v15.616h76.8v-15.616zM819.2 125.184c0-13.568-0.555-16.64-4.224-22.827-6.144-10.496-12.203-12.757-34.176-12.757s-28.032 2.261-34.176 12.757c-3.669 6.187-4.224 9.259-4.224 22.827v15.616h76.8v-15.616z" />
<glyph unicode="&#xe907;" glyph-name="car" d="M302.933 712.448c-35.072-4.181-75.733-27.093-97.877-55.168-11.349-14.379-18.816-27.648-43.093-76.373l-20.907-41.984-14.635-0.939c-33.594-2.094-62.042-22.204-75.966-50.707l-0.236-0.535c-8.789-18.347-9.557-27.264-8.96-102.997l0.555-68.011 4.907-10.624c5.717-12.373 17.749-24.533 29.696-29.995 6.741-3.072 11.947-3.797 31.957-4.309l23.893-0.597 4.949-12.245c13.837-33.474 41.042-59.034 74.781-70.361l0.867-0.253c10.923-3.541 16.896-4.309 33.749-4.48 24.789-0.256 34.091 1.792 55.467 12.203 13.568 6.571 18.603 10.24 30.805 22.443 12.245 12.245 15.872 17.237 22.443 30.805 4.309 8.917 8.277 17.579 8.832 19.2 0.896 2.859 7.68 2.987 118.912 2.56l117.931-0.427 3.157-8.96c10.112-28.757 37.333-57.344 65.792-69.163 16.256-6.741 27.648-8.832 47.701-8.704 21.077 0.128 34.987 3.115 50.987 11.051 27.648 13.739 51.541 40.021 60.587 66.731l3.115 9.045 53.589 0.853c50.475 0.811 54.059 1.067 61.653 4.565 12.075 5.589 23.979 17.664 29.611 30.037 4.736 10.411 4.864 11.392 5.547 46.805 1.195 64.555-4.309 89.387-27.435 122.965-20.127 28.314-49.177 49.136-82.995 58.461l-1.058 0.249c-12.032 3.285-19.413 3.84-62.251 4.736l-48.555 0.981-49.963 60.587c-27.435 33.323-55.595 65.963-62.507 72.533-18.92 17.72-42.324 30.884-68.32 37.604l-1.098 0.241c-9.899 2.56-24.661 2.944-137.387 3.243-69.461 0.213-131.669-0.256-138.24-1.067zM372.053 650.24c0-0.469-12.459-25.813-27.733-56.32l-27.691-55.467h-51.669c-28.373 0-51.627 0.427-51.627 0.981s8.149 17.109 18.133 36.779c15.744 31.147 19.456 37.205 28.715 46.592 13.696 13.867 33.792 24.192 51.285 26.368 12.971 1.621 60.587 2.432 60.587 1.067zM568.32 646.912c14.763-4.693 27.733-12.288 37.163-21.931 4.779-4.864 22.912-26.155 40.32-47.275l31.659-38.4-143.616-0.427c-78.976-0.256-143.872-0.128-144.256 0.213-0.768 0.768 51.755 106.411 54.699 110.037 3.029 3.755 111.232 1.835 124.032-2.219zM860.416 470.613c6.357-2.176 16.171-7.467 22.187-11.947l10.837-8.107-21.333-0.853c-21.888-0.896-25.429-1.877-31.915-8.832-15.531-16.597-9.515-42.752 11.819-51.669 4.907-2.048 13.184-2.645 37.12-2.645h30.763v-52.907h-87.339l-1.024 3.84c-2.978 7.711-5.875 13.992-9.103 20.071l0.484-0.999c-13.184 26.325-39.424 49.024-68.565 59.264-9.685 3.413-14.421 3.925-37.547 3.925-24.405 0-27.435-0.341-38.955-4.523-33.102-12.209-59.017-37.192-72.188-68.814l-0.302-0.818-4.395-11.093-236.885-0.896-2.133 7.296c-4.949 16.896-21.163 39.808-37.931 53.547-36.139 29.653-90.112 34.987-131.712 13.056-23.424-12.373-48.469-41.429-56.832-65.963l-2.688-7.893h-28.885l0.555 60.16c0.427 52.139 0.896 60.843 3.328 65.28 3.489 6.763 9.426 11.852 16.61 14.153l0.201 0.055c3.84 1.067 135.467 1.579 365.227 1.408l359.253-0.256 11.349-3.84zM271.36 352.213c19.627-9.131 31.104-26.112 32.128-47.573 1.067-22.571-9.387-41.387-28.928-52.011-7.708-3.806-16.781-6.033-26.375-6.033-6.74 0-13.223 1.099-19.28 3.128l0.428-0.124c-21.348 8.159-36.234 28.472-36.234 52.263 0 6.909 1.255 13.524 3.551 19.631l-0.127-0.385c3.968 10.581 15.744 24.661 24.448 29.184 7.844 4.329 17.195 6.876 27.141 6.876 8.419 0 16.412-1.825 23.605-5.102l-0.357 0.146zM732.587 355.029c23.509-7.125 38.955-27.733 39.040-52.139 0.043-16.341-3.84-27.093-13.824-37.973-12.544-13.739-21.248-17.451-41.003-17.451-18.731 0-26.368 2.944-38.955 15.061-7.559 6.556-12.887 15.506-14.804 25.661l-0.044 0.28c-1.009 3.886-1.588 8.347-1.588 12.943 0 9.242 2.342 17.938 6.464 25.525l-0.14-0.282c12.416 24.491 39.125 36.181 64.853 28.373z" />
<glyph unicode="&#xe908;" glyph-name="child" d="M545.749 840.96l-34.901-55.893-14.336-1.28c-64.299-5.675-102.229-15.744-150.059-39.723-71.828-36.339-128.668-93.495-163.654-163.481l-0.954-2.109-9.685-19.541-7.979-0.043c-19.456-0.043-47.403-9.856-68.693-24.064-63.275-42.368-81.92-127.701-42.283-193.835 11.947-19.968 37.248-43.179 58.923-54.059 11.947-6.016 36.011-12.8 49.792-14.080l11.349-1.067 7.339-15.701c15.019-32.171 38.187-65.365 65.621-94.123 54.4-56.96 122.027-93.227 202.624-108.672 17.024-3.243 25.387-3.755 63.147-3.755s46.123 0.512 63.147 3.755c80.256 15.36 147.669 51.413 202.027 107.989 27.477 28.672 53.504 66.261 67.712 97.835l5.717 12.672 11.392 1.067c13.867 1.28 37.888 8.064 49.877 14.080 21.675 10.88 46.976 34.091 58.923 54.059 39.637 66.133 20.992 151.467-42.283 193.835-21.291 14.208-49.237 24.021-68.693 24.064l-8.021 0.043-10.325 20.565c-48.091 94.911-133.276 165.137-235.975 192.233l-2.574 0.577c-8.872 2.050-15.629 3.929-22.285 6.036l2.104-0.575c10.677 18.727 19.289 32.699 28.249 46.423l-2.222-3.629c14.549 23.296 26.197 42.539 25.856 42.795 5.916-2.813-11.066 7.86-28.108 18.445l-23.945 13.854c-1.195 0.725-14.763-19.413-36.821-54.699zM564.949 715.349c72.704-13.44 139.563-53.12 184.235-109.483 20.011-25.259 29.995-42.752 48.683-85.333l10.496-23.893 28.885-0.981c23.979-0.811 30.464-1.579 38.101-4.608 54.4-21.589 69.803-88.235 30.037-129.963-18.219-19.072-37.419-25.643-75.136-25.685l-22.229-0.043-11.563-27.093c-20.395-47.744-37.888-74.496-69.419-106.112-10.795-10.795-25.6-24.149-32.939-29.568-61.184-45.525-140.331-67.413-213.675-59.008-98.688 11.264-183.68 66.859-232.405 152.021-6.097 10.935-12.955 24.954-19.183 39.31l-1.297 3.357-11.563 27.093-22.229 0.043c-37.717 0.043-56.917 6.613-75.136 25.685-39.765 41.728-24.363 108.373 30.037 129.963 7.637 3.029 14.123 3.797 38.101 4.608l28.885 0.981 10.453 23.893c18.304 41.899 28.587 59.904 48.725 85.333 47.494 58.728 115.431 99.28 192.843 110.814l1.675 0.205c21.077 3.029 75.52 2.133 95.616-1.536zM336.213 455.68v-40.107h80.213v80.213h-80.213v-40.107zM607.573 455.68v-40.107h80.213v80.213h-80.213v-40.107zM352.64 342.613c2.645-30.507 10.837-55.125 26.069-78.293 22.016-33.365 56.917-58.24 94.336-67.157 68.053-16.256 136.235 10.923 173.739 69.291 13.952 21.76 22.059 46.805 24.576 76.16l0.811 9.813h-320.341l0.811-9.813z" />
<glyph unicode="&#xe909;" glyph-name="circle-plus" d="M472.747 872.747c-79.957-7.040-158.848-38.571-225.28-89.984-18.645-14.464-55.765-51.584-70.229-70.229-76.8-99.243-106.88-221.653-84.309-343.296 12.373-66.816 40.917-129.707 84.309-185.771 14.464-18.645 51.584-55.765 70.229-70.229 104.149-80.597 232.661-109.483 360.107-80.853 106.112 23.851 202.752 91.477 262.187 183.509 34.389 53.205 54.741 107.819 64.896 174.080 4.181 27.349 4.181 88.704 0 116.053-12.16 79.275-39.936 144.555-87.893 206.507-14.464 18.645-51.584 55.765-70.229 70.229-88.192 68.224-194.304 99.669-303.787 89.984zM547.499 787.541c68.807-7.896 130.189-34.717 180.209-75.060l-0.668 0.521c15.104-12.203 43.819-41.472 54.869-55.936 44.231-57.29 71.031-130.011 71.424-208.976v-0.091c-0.392-81.758-29.112-156.733-76.84-215.689l0.509 0.649c-12.203-15.104-41.472-43.819-55.936-54.869-57.29-44.231-130.011-71.031-208.976-71.424h-0.091c-79.055 0.393-151.776 27.193-209.872 72.022l0.806-0.598c-14.464 11.051-43.733 39.765-55.936 54.869-47.432 58.101-76.17 133.086-76.17 214.783 0 53.965 12.539 105.002 34.863 150.355l-0.89-2.002c16.29 34.347 37.156 63.727 62.256 88.88l-0.006-0.006c27.097 28.551 59.129 52.099 94.782 69.339l1.943 0.847c43.554 21.541 94.83 34.144 149.050 34.144 12.211 0 24.273-0.639 36.155-1.886l-1.482 0.126zM498.048 615.979c-6.209-2.219-11.486-5.725-15.726-10.22l-0.018-0.020c-12.032-12.032-12.971-17.024-12.971-70.144v-44.928h-44.928c-52.949 0-58.155-0.939-70.016-12.8-7.967-7.491-12.93-18.099-12.93-29.867s4.962-22.376 12.908-29.847l0.021-0.020c11.861-11.861 17.067-12.8 70.016-12.8h44.928v-45.781c0-52.992 0.768-57.131 13.056-69.419 7.68-7.637 19.541-12.8 29.611-12.8 10.112 0 21.931 5.12 29.739 12.928 11.989 11.989 12.928 17.067 12.928 70.144v44.928h44.928c53.077 0 58.155 0.939 70.144 12.928 7.808 7.808 12.928 19.627 12.928 29.739s-5.12 21.931-12.928 29.739c-11.989 11.989-17.067 12.928-70.144 12.928h-44.928v44.928c0 53.077-0.939 58.155-12.928 70.144-11.904 11.904-26.88 15.403-43.691 10.24z" />
<glyph unicode="&#xe90a;" glyph-name="clipboard-list" d="M439.211 857.685c-34.901-9.301-63.189-34.731-77.269-69.461l-4.736-11.691-41.643-0.981c-36.48-0.811-43.008-1.408-52.736-4.608-33.835-11.264-63.189-40.917-73.856-74.624l-3.797-11.947v-558.080l3.797-11.947c10.837-34.176 40.533-63.872 74.709-74.709l11.947-3.797h472.747l11.947 3.797c35.288 12.141 62.568 39.421 74.458 73.874l0.251 0.836 3.797 11.947v558.080l-3.797 11.947c-10.667 33.707-40.021 63.36-73.856 74.624-9.728 3.2-16.256 3.797-52.736 4.608l-41.643 0.981-4.821 11.904c-13.26 31.785-38.825 56.195-70.585 67.619l-0.839 0.263c-10.581 3.541-14.421 3.755-75.136 4.181-58.325 0.384-65.067 0.128-76.203-2.816zM574.293 798.72c5.76-2.133 11.904-6.528 18.901-13.525 12.203-12.16 16.085-21.504 16.085-38.528s-3.883-26.368-16.085-38.571c-16.469-16.469-18.517-16.896-81.195-16.896s-64.725 0.427-81.195 16.896c-12.203 12.203-16.085 21.547-16.085 38.571 0 15.488 3.84 25.643 13.909 36.651 9.216 10.069 19.243 15.744 31.701 17.963 4.48 0.811 30.037 1.28 56.789 1.024 42.283-0.384 49.749-0.853 57.173-3.584zM362.027 704.896c13.013-32.085 40.491-57.941 72.32-67.968 11.435-3.584 14.677-3.755 77.653-3.755s66.219 0.171 77.653 3.755c31.787 10.027 59.307 35.84 72.32 67.968l4.821 11.904 33.963-0.043c42.411-0.043 47.701-1.451 63.147-16.853 18.603-18.645 16.896 10.923 16.896-294.571s1.707-275.925-16.896-294.571c-18.517-18.475 4.907-16.896-251.904-16.896s-233.387-1.579-251.904 16.896c-18.603 18.645-16.896-10.923-16.896 294.571 0 252.971 0.128 265.813 3.115 274.347 3.883 11.093 17.152 26.112 27.648 31.147 11.136 5.419 20.523 6.485 53.547 6.229l29.696-0.256 4.821-11.904zM370.048 488.064c-15.573-4.992-28.715-23.339-28.715-40.064 0-24.576 23.339-45.013 48-42.112 34.389 4.096 49.621 46.464 25.728 71.723-10.581 11.136-29.312 15.488-45.013 10.453zM539.179 473.131c-8.173-4.893-13.559-13.7-13.559-23.765 0-0.48 0.012-0.958 0.037-1.433l-0.003 0.067c0-11.179 4.096-18.773 13.525-25.131 5.675-3.84 6.485-3.883 58.155-3.883s52.48 0.043 58.155 3.883c8.173 4.893 13.559 13.7 13.559 23.765 0 0.48-0.012 0.958-0.037 1.433l0.003-0.067c0.022 0.408 0.034 0.886 0.034 1.366 0 10.065-5.386 18.872-13.434 23.695l-0.125 0.070c-5.675 3.84-6.485 3.883-58.155 3.883s-52.48-0.043-58.155-3.883zM370.048 317.397c-15.573-4.992-28.715-23.339-28.715-40.064 0-24.576 23.339-45.013 48-42.112 34.389 4.096 49.621 46.464 25.728 71.723-10.581 11.136-29.312 15.488-45.013 10.453zM539.179 302.464c-8.173-4.893-13.559-13.7-13.559-23.765 0-0.48 0.012-0.958 0.037-1.433l-0.003 0.067c0-11.179 4.096-18.773 13.525-25.131 5.675-3.84 6.485-3.883 58.155-3.883s52.48 0.043 58.155 3.883c8.173 4.893 13.559 13.7 13.559 23.765 0 0.48-0.012 0.958-0.037 1.433l0.003-0.067c0.022 0.408 0.034 0.886 0.034 1.366 0 10.065-5.386 18.872-13.434 23.695l-0.125 0.070c-5.675 3.84-6.485 3.883-58.155 3.883s-52.48-0.043-58.155-3.883z" />
<glyph unicode="&#xe90b;" glyph-name="close" d="M273.365 712.32c-8.235-2.389-23.424-17.877-25.728-26.24-2.859-10.453-2.176-22.997 1.664-31.573 2.645-5.845 26.923-31.189 102.741-107.093l99.328-99.413-99.328-99.413c-106.325-106.453-106.197-106.283-106.24-123.307-0.043-14.037 2.901-21.333 12.501-30.976 9.643-9.6 16.939-12.544 30.976-12.501 17.024 0.043 16.853-0.085 123.307 106.24l99.413 99.328 99.413-99.328c106.453-106.325 106.283-106.197 123.307-106.24 14.037-0.043 21.333 2.901 30.976 12.501 9.6 9.643 12.544 16.939 12.501 30.976-0.043 17.024 0.085 16.853-106.24 123.307l-99.328 99.413 99.328 99.413c106.325 106.453 106.197 106.283 106.24 123.307 0.043 14.336-2.816 21.333-12.757 31.019-9.856 9.643-16.939 12.501-30.72 12.459-17.024-0.043-16.853 0.085-123.307-106.24l-99.413-99.328-99.413 99.328c-75.904 75.819-101.248 100.096-107.093 102.741-8.277 3.755-22.272 4.437-32.128 1.621z" />
<glyph unicode="&#xe90c;" glyph-name="date" d="M327.467 871.979c-8.619-2.645-19.925-12.416-24.875-21.547-2.475-4.608-3.157-10.667-3.627-33.152l-0.597-27.563-32.683-0.811c-28.16-0.725-34.645-1.408-46.421-4.949-21.035-6.357-35.371-15.232-53.035-32.853-17.877-17.835-27.307-33.323-33.451-54.699l-3.925-13.739v-554.667l3.925-13.739c10.665-34.795 34.39-62.829 65.32-78.93l0.728-0.345c27.648-13.867 1.877-12.8 313.173-12.8s285.525-1.067 313.173 12.8c24.678 12.858 44.315 32.495 56.827 56.444l0.347 0.729c13.867 27.648 12.8 1.877 12.8 313.173v277.333l-3.925 13.739c-6.144 21.376-15.573 36.864-33.451 54.699-17.664 17.621-32 26.496-53.035 32.853-11.819 3.541-18.261 4.224-46.549 4.949l-32.853 0.811v24.277c0 29.269-2.091 36.864-13.056 47.872-7.68 7.637-19.541 12.8-29.611 12.8-10.112 0-21.931-5.12-29.739-12.928-10.709-10.709-12.928-19.115-12.928-48.811v-23.595h-256v23.595c0 29.696-2.219 38.101-12.928 48.811-11.904 11.861-26.88 15.403-43.605 10.24zM298.965 676.267c0.64-31.147 1.493-33.92 13.653-45.739 6.955-6.741 19.328-11.861 28.715-11.861 10.112 0 21.931 5.12 29.739 12.928 10.709 10.709 12.928 19.115 12.928 48.811v23.595h256v-23.595c0-29.696 2.219-38.101 12.928-48.811 7.808-7.808 19.627-12.928 29.739-12.928 10.069 0 21.931 5.163 29.611 12.8 11.008 11.008 13.056 18.56 13.056 48.085v24.448h24.448c28.672 0 36.864-2.091 47.061-11.989 13.483-13.056 12.928-9.429 13.483-88.277l0.469-70.4h-597.461v67.115c0 76.587 0.171 77.867 12.971 90.624 10.795 10.837 17.451 12.629 47.061 12.8l25.003 0.128 0.597-27.733zM810.283 292.267l-0.469-155.733-4.736-8.064c-5.205-8.884-13.166-15.672-22.692-19.27l-0.305-0.101c-9.472-3.371-530.688-3.371-540.16 0-9.832 3.699-17.793 10.487-22.884 19.162l-0.113 0.208-4.736 8.064-0.939 311.467h597.504l-0.469-155.733zM328.96 342.101c-4.17-2.418-7.511-5.855-9.747-9.978l-0.067-0.134c-3.157-6.272-3.413-10.027-3.413-54.656 0-44.672 0.213-48.384 3.456-54.656 2.252-4.406 5.749-7.903 10.026-10.095l0.129-0.060c6.272-3.243 9.984-3.456 54.784-3.456 45.781 0 48.341 0.171 54.485 3.627 4.11 2.549 7.478 5.916 9.952 9.897l0.075 0.129c3.456 6.144 3.627 8.704 3.627 54.613s-0.171 48.469-3.627 54.613c-2.549 4.11-5.916 7.478-9.897 9.952l-0.129 0.075c-6.144 3.456-8.619 3.627-54.827 3.541-44.843-0.043-48.896-0.299-54.827-3.413z" />
<glyph unicode="&#xe90d;" glyph-name="deal" d="M208 861.867l-41.557-55.467h-23.979c-37.461 0-52.139-5.291-73.515-26.411-13.099-13.013-20.992-26.965-24.405-43.221-1.195-5.76-1.877-34.731-1.877-79.787v-70.741h110.933v-7.424c0-9.301 5.504-31.061 10.155-40.149 1.216-2.176 2.396-4.751 3.375-7.423l0.123-0.385c0-0.512-28.032-0.939-62.293-0.939h-62.293v-331.093l125.44-0.128 76.8-98.261c60.757-77.781 78.848-99.84 86.656-105.685 31.147-23.211 71.595-20.992 100.267 5.547 9.387 8.704 22.144 29.227 22.144 35.627 0 1.451 3.541 2.645 9.813 3.413 30.165 3.669 53.035 18.816 64.981 43.008l4.437 8.96 11.989 0.043c14.805 0.043 24.149 2.133 36.565 8.107 12.459 5.973 28.8 22.357 34.859 34.944l4.693 9.813h147.541l81.92 54.613h130.56v331.093h-62.293c-34.261 0-62.293 0.427-62.293 0.939 1.103 3.057 2.282 5.632 3.643 8.093l-0.145-0.285c4.651 9.088 10.155 30.848 10.155 40.149v7.424h110.933v20.352c0 11.221-0.811 26.283-1.835 33.536-12.716 85.29-79.282 151.87-163.497 164.477l-1.069 0.131-15.36 2.133-110.933 110.464h-439.083l-41.557-55.467zM484.693 834.56v-28.16h-123.733c-68.053 0-123.733 0.512-123.733 1.109s9.003 13.227 20.053 28.075l20.053 27.008 207.36 0.128v-28.16zM693.333 835.84c14.763-14.763 26.88-27.435 26.88-28.16 0-0.683-40.704-1.28-90.453-1.28h-90.453v56.32h127.104l26.923-26.88zM824.277 746.965c46.677-14.421 81.877-48.725 95.445-93.056 1.963-6.443 3.584-12.032 3.584-12.373 0-0.384-15.189-0.683-33.707-0.64l-33.707 0.043-4.267 6.997c-11.477 18.773-40.107 38.869-63.915 44.928-13.312 3.413-41.643 3.371-54.784-0.043-23.936-6.187-51.413-25.429-63.36-44.331l-4.821-7.637h-305.621l-3.243 5.547c-5.291 9.003-20.949 24.491-32.213 31.829-18.304 11.947-31.403 15.957-54.912 16.853-23.936 0.896-35.755-1.408-54.827-10.752-13.611-6.656-34.603-25.045-41.557-36.395l-4.267-6.997-71.083-0.085 0.555 43.093c0.512 40.704 0.768 43.477 4.352 50.219 4.074 7.479 10.691 13.14 18.665 15.887l0.236 0.071c2.517 0.768 158.976 1.28 347.648 1.109l343.040-0.341 12.757-3.925zM287.659 635.307c10.453-5.333 22.016-17.536 26.795-28.288 5.333-11.947 4.992-30.592-0.811-43.221-8.765-19.408-27.951-32.671-50.234-32.671-9.818 0-19.034 2.574-27.011 7.085l0.274-0.142c-21.333 11.563-32.896 38.869-26.197 61.995 5.376 18.347 17.664 31.659 35.285 38.059 11.435 4.139 30.805 2.859 41.899-2.816zM784.128 635.648c11.221-5.333 20.736-15.147 26.24-26.965 6.443-13.909 6.357-33.195-0.213-45.867-6.272-12.075-13.056-19.413-22.827-24.747-7.714-4.384-16.946-6.967-26.781-6.967-30.351 0-54.955 24.604-54.955 54.955 0 8.216 1.803 16.010 5.034 23.009l-0.141-0.341c7.125 14.592 19.712 25.515 35.328 30.635 8.107 2.645 29.227 0.597 38.315-3.712zM650.837 574.336c0.939-9.899 5.248-24.533 12.203-41.429 1.152-2.816-6.699-2.987-151.040-2.987s-152.192 0.171-150.997 2.987c5.717 13.44 11.349 32.896 12.203 42.155l1.067 11.179h275.499l1.067-11.904zM457.387 474.581c0-0.427-36.48-29.312-81.024-64.213l-81.067-63.488 7.808-15.061c19.072-36.949 43.221-58.325 80.043-70.784 11.89-3.732 25.562-5.881 39.736-5.881 10.427 0 20.583 1.163 30.344 3.368l-0.917-0.174c23.467 5.931 35.584 12.928 79.915 46.123 22.827 17.109 42.453 31.488 43.605 31.915 2.176 0.811 72.832-94.208 78.379-105.472 1.35-2.751 2.139-5.988 2.139-9.409 0-9.228-5.745-17.115-13.853-20.279l-0.148-0.051c-14.891-6.229-19.712-2.645-48.597 36.053-44.622 61.445-52.726 72.191-60.84 82.928l36.136-49.904c-0.256 0.341-10.496-6.827-22.741-15.915l-22.272-16.469 20.565-27.349c11.349-15.019 21.76-30.080 23.168-33.451 6.613-15.872-8.363-33.707-25.685-30.464-7.253 1.365-13.227 7.893-38.656 41.984l-21.419 28.715c-0.213 0.299-10.453-6.869-22.699-15.915l-22.315-16.427 20.139-26.795c24.064-31.915 24.149-32.085 24.149-42.027 0-15.872-17.835-26.411-32.171-18.987-3.541 1.835-14.165 14.421-30.293 35.925l-24.875 33.152-21.632-16.299c-11.861-8.96-21.376-17.024-21.12-17.92s10.667-15.232 23.168-31.829c26.539-35.285 26.709-35.584 26.709-44.544 0-5.248-1.237-8.277-5.205-12.8-8.32-9.472-17.323-11.264-28.672-5.632-2.219 1.067-42.112 50.56-88.661 109.952l-84.608 107.989h-96.64v220.16h180.053c99.029 0 180.053-0.341 180.053-0.725zM926.72 365.227v-110.080h-91.307l-84.608-56.405-20.821 0.469c-17.536 0.384-20.779 0.896-20.224 3.029 2.304 9.003 2.048 29.269-0.512 39.253-3.627 14.251-5.973 18.048-36.523 59.733l-25.643 34.987 85.931 1.707v54.613l-174.421 0.896-47.616-35.968c-26.197-19.755-51.584-37.845-56.448-40.235-25.173-12.331-59.008-7.979-80.043 10.24l-6.699 5.845 5.035 4.011 175.872 137.941 378.027 0.043v-110.080z" />
<glyph unicode="&#xe90e;" glyph-name="document" d="M273.92 872.107c-14.080-2.371-26.68-7.115-37.96-13.843l0.498 0.275c-28.259-16.562-49.612-42.312-60.175-73.076l-0.284-0.951-4.48-13.099v-646.827l4.48-13.099c11.337-33.51 34.666-60.416 64.76-76.152l0.734-0.349c27.477-13.781 7.125-12.8 270.507-12.8h234.667l13.739 3.925c21.376 6.144 36.864 15.573 54.699 33.451 17.877 17.835 27.307 33.323 33.451 54.699l3.925 13.739v250.88c0 242.816-0.085 251.093-3.243 257.707-2.176 4.565-40.491 44.117-116.053 119.765-109.269 109.397-113.109 112.981-122.069 115.627-8.192 2.389-27.861 2.688-167.253 2.517-122.965-0.085-160.64-0.64-169.941-2.389zM554.667 720.981c0-55.765 0.469-70.528 2.645-80.043 6.528-28.672 31.531-54.272 60.373-61.824 9.685-2.517 20.736-2.944 80.768-3.029l69.547-0.085v-216.448c0-243.456 0.939-226.091-12.971-240s4.096-13.013-246.528-12.501l-222.635 0.469-8.192 4.821c-9.372 5.724-16.432 14.443-19.916 24.805l-0.095 0.326c-1.109 4.224-1.536 111.36-1.237 314.197l0.427 307.797 4.736 8.064c5.333 9.088 13.568 16 22.997 19.371 5.12 1.835 32.555 2.304 138.24 2.347l131.84 0.085v-68.352zM674.133 694.613l33.237-33.28h-67.371v33.28c0 18.304 0.213 33.28 0.427 33.28 0.256 0 15.403-14.976 33.707-33.28zM370.048 615.979c-15.488-4.779-28.715-23.168-28.715-39.979 0-17.28 13.184-35.243 29.44-40.064 12.117-3.627 57.003-3.627 69.12 0 16.128 4.779 29.44 22.912 29.44 40.064s-13.312 35.285-29.44 40.064c-11.733 3.499-58.411 3.413-69.845-0.085zM370.048 445.312c-15.744-4.864-28.715-23.296-28.715-40.832 0-13.824 10.624-30.464 24.235-37.888 5.291-2.901 13.995-3.072 146.432-3.072 158.251 0 145.024-1.109 158.805 13.099 6.741 6.955 11.861 19.328 11.861 28.715 0 17.152-13.312 35.285-29.44 40.064-12.672 3.797-270.891 3.669-283.179-0.085z" />
<glyph unicode="&#xe90f;" glyph-name="done" d="M460.8 865.28c-96.872-12.017-181.808-55.721-245.773-120.247l-0.030-0.030c-61.226-60.947-103.751-140.633-118.246-229.729l-0.325-2.421c-4.309-27.307-5.291-84.224-1.92-113.28 19.243-165.248 135.936-305.621 293.973-353.536 66.389-20.096 141.696-23.509 210.176-9.472 82.955 17.826 154.577 58.226 210.32 114.405l0.026 0.027c56.206 55.769 96.606 127.392 113.935 207.601l0.497 2.746c5.352 26.053 8.416 55.997 8.416 86.656s-3.064 60.603-8.902 89.541l0.486-2.885c-17.826 82.955-58.226 154.577-114.405 210.32l-0.027 0.026c-64.234 64.717-149.524 108.455-244.733 120.078l-2.008 0.2c-26.411 3.072-76.16 3.072-101.461 0zM538.624 794.411c71.116-6.096 135.14-32.288 187.528-72.801l-0.819 0.609c16.384-12.8 44.757-40.917 57.941-57.472 64.043-80.213 89.771-186.453 69.248-285.611-10.752-51.669-34.773-104.107-66.304-144.469-12.8-16.384-40.917-44.757-57.472-57.941-80.256-64.085-186.453-89.771-285.867-69.163-94.040 20.020-172.499 75.458-222.326 151.372l-0.821 1.332c-30.379 46.891-49.749 105.045-54.272 163.243-6.613 85.163 21.717 175.275 76.416 242.944 12.245 15.189 43.221 45.568 57.643 56.576 52.053 39.723 119.637 66.091 182.613 71.253 8.656 0.988 18.688 1.552 28.851 1.552 9.735 0 19.349-0.517 28.817-1.526l-1.177 0.102zM624.64 566.485c-3.712-1.621-33.963-30.549-80.64-77.141l-74.624-74.539-32.043 31.872c-20.011 19.925-34.432 32.853-38.357 34.517-23.168 9.685-48.725-5.291-50.475-29.611-1.323-18.219-0.939-18.731 50.645-70.613 29.995-30.208 49.621-48.64 54.059-50.773 4.747-2.102 10.284-3.326 16.107-3.326s11.36 1.224 16.367 3.428l-0.261-0.102c4.608 2.219 37.248 33.749 96.768 93.44 98.005 98.261 94.677 94.208 93.312 113.28-1.365 19.029-16 32.341-35.328 32.171-5.248 0-12.245-1.195-15.531-2.603z" />
<glyph unicode="&#xe910;" glyph-name="double-done" d="M710.502 710.195c-4.927-1.72-9.153-3.708-13.131-6.070l0.331 0.182c-3.072-1.946-56.064-54.067-117.658-115.866-124.57-124.877-118.374-117.504-118.374-141.312 0-28.314 20.941-49.254 49.459-49.408 23.757-0.154 16.282-6.4 142.182 119.194 126.771 126.464 122.419 121.293 122.317 144.435 0.037 0.703 0.059 1.527 0.059 2.355 0 12.455-4.813 23.785-12.68 32.233l0.026-0.029c-11.571 13.158-35.789 19.712-52.531 14.285zM924.16 710.246c-4.436-1.459-8.11-2.967-11.658-4.695l0.548 0.241c-2.304-1.178-93.542-91.341-202.65-200.346l-198.349-198.195-92.621 92.365c-103.168 102.81-98.202 98.765-121.6 98.662-0.55 0.024-1.194 0.037-1.842 0.037-13.094 0-24.889-5.56-33.153-14.448l-0.026-0.028c-10.394-10.394-14.336-20.275-14.336-35.84 0-23.194-5.222-16.998 120.678-142.848 93.082-93.082 114.483-113.715 121.498-116.838 11.878-5.325 30.822-5.325 42.701 0 7.117 3.174 44.288 39.629 228.198 223.488 183.859 183.859 220.262 221.030 223.488 228.198 5.171 11.622 5.325 30.822 0.205 42.086-5.662 11.193-14.547 20.061-25.426 25.553l-0.327 0.15c-9.677 4.301-26.266 5.478-35.328 2.458zM68.813 496.128c-20.165-7-34.381-25.836-34.381-47.993 0-8.422 2.054-16.364 5.689-23.353l-0.133 0.281c3.379-6.81 28.314-32.614 117.402-121.498 125.901-125.594 118.426-119.296 142.131-119.194 28.518 0.154 49.51 21.094 49.51 49.459 0 23.757 6.246 16.282-119.296 142.131-90.88 91.136-114.586 113.971-121.754 117.504-6.684 3.316-14.556 5.256-22.881 5.256-5.823 0-11.424-0.949-16.657-2.701l0.37 0.107z" />
<glyph unicode="&#xe911;" glyph-name="edit" d="M792.747 870.144c-22.838-3.526-43.041-12.835-59.66-26.375l0.225 0.178c-6.741-5.419-94.507-92.331-195.072-193.109-155.349-155.648-183.253-184.363-185.685-190.891-2.517-6.827-2.773-15.957-2.347-79.36l0.512-71.68 4.523-6.571c2.517-3.584 7.509-8.576 11.093-11.093l6.571-4.523 144.725-0.981 8.704 4.267c6.997 3.413 45.611 41.259 194.901 190.805 102.443 102.571 188.8 190.293 191.872 194.901 7.979 11.861 14.635 26.155 18.133 38.827 4.096 14.933 4.096 49.365-0.043 64.341-11.563 42.027-46.123 76.843-87.424 88.021-10.197 2.773-41.6 4.779-51.029 3.243zM833.152 798.293c11.179-4.949 22.699-16.171 28.245-27.477 4.053-8.235 4.736-11.733 4.736-24.149 0-21.291-3.712-27.733-32.384-56.32l-23.083-22.997-39.68 39.637-39.637 39.68 22.144 22.272c23.339 23.424 29.056 27.904 40.661 31.701 9.856 3.2 29.056 2.091 38.997-2.347zM722.773 657.92l39.253-39.253-264.533-264.533h-79.36v79.36l131.84 131.84c43.702 43.971 86.939 86.938 130.441 129.635l2.253 2.205c0.469 0 18.517-17.664 40.107-39.253zM234.368 693.632c-23.252-4.352-43.461-15.203-59.247-30.574l0.025 0.025c-14.681-13.561-25.96-30.588-32.556-49.792l-0.255-0.853-4.949-15.104v-428.373l4.821-13.653c7.211-20.437 13.867-30.891 30.037-47.104 16.299-16.299 29.696-24.619 49.621-30.848l12.8-3.968h428.373l13.653 4.693c36.498 12.497 64.706 40.719 76.927 76.365l0.257 0.861 4.651 13.653 1.109 158.72-4.053 7.68c-2.978 5.065-6.77 9.319-11.243 12.722l-0.106 0.078c-6.315 4.437-8.704 5.12-18.603 5.12-9.515-0.043-12.459-0.768-17.963-4.565-4.256-3.167-7.913-6.811-10.994-10.913l-0.099-0.138-4.523-6.571-1.707-151.893-4.779-9.771c-5.803-11.668-15.638-20.602-27.641-25.101l-0.349-0.115c-9.003-3.328-13.099-3.413-209.579-3.413-198.997 0-200.491 0.043-209.92 3.541-13.529 5.665-24.074 16.209-29.605 29.379l-0.134 0.36c-3.499 9.429-3.541 10.923-3.541 209.92 0 198.187 0.043 200.491 3.499 209.792 4.309 11.435 15.701 23.68 26.837 28.843 7.808 3.584 10.496 3.755 84.309 4.565l76.203 0.853 7.296 5.12c9.106 6.177 15.010 16.479 15.010 28.16s-5.904 21.983-14.892 28.084l-0.119 0.076-7.296 5.12-76.203 0.256c-41.941 0.128-80.213-0.427-85.077-1.237z" />
<glyph unicode="&#xe912;" glyph-name="engine" horiz-adv-x="1365" d="M654.421 957.781c-42.235-8.336-78.275-30.536-104.039-61.572l-0.238-0.295c-12.885-15.957-29.184-48.64-33.877-67.925-4.011-16.213-3.925-61.269 0-77.312 10.155-40.704 37.035-79.787 70.229-101.888l11.861-7.936 0.597-150.528 0.683-150.528 7.424-15.189c30.635-62.123 120.576-62.123 151.211 0l7.424 15.189 0.683 150.528 0.597 150.528 11.861 7.936c33.020 23.34 57.395 56.99 68.561 96.205l0.303 1.246c3.201 12.46 5.039 26.765 5.039 41.498 0 53.912-24.604 102.077-63.195 133.88l-0.297 0.238c-18.153 13.777-39.27 24.88-62.087 32.186l-1.486 0.411c-14.137 2.875-30.386 4.521-47.020 4.521-8.534 0-16.967-0.433-25.278-1.279l1.045 0.086zM245.76 528.384c-92.424-17.62-168.59-75.41-210.836-154.122l-0.79-1.612c-19.569-36.192-31.75-78.958-33.435-124.406l-0.015-0.522c-0.178-3.853-0.279-8.37-0.279-12.91 0-151.304 112.382-276.361 258.227-296.25l1.551-0.173c24.661-3.328 820.309-3.328 844.971 0 115.369 15.832 208.805 95.35 244.544 201.406l0.618 2.114c9.557 29.355 12.885 48.043 14.165 81.92 0.251 4.427 0.394 9.606 0.394 14.819 0 46.968-11.604 91.226-32.102 130.063l0.732-1.522c-35.751 71.599-97.547 125.73-172.67 150.61l-2.093 0.6c-36.267 12.032-54.613 13.824-141.995 13.824h-79.275l0.597-84.821 0.597-84.736 78.507-1.195c68.693-1.024 79.957-1.621 89.856-5.291 32.768-12.032 58.453-34.645 73.301-64.427 8.57-16.705 13.593-36.447 13.593-57.362 0-56.201-36.268-103.93-86.677-121.061l-0.9-0.266-15.189-5.291h-816.981l-15.189 5.291c-10.91 4.053-20.278 8.737-29.048 14.283l0.632-0.373c-90.539 59.136-74.496 191.573 27.733 229.205 9.899 3.669 21.163 4.267 89.856 5.291l78.507 1.195 0.597 84.736 0.597 84.821-81.408-0.256c-60.928-0.171-86.187-1.024-100.693-3.584z" />
<glyph unicode="&#xe913;" glyph-name="error" d="M479.573 959.019c1.716-0.022-6.79-0.93-15.311-1.789l-9.436-0.771c-145.749-14.592-284.245-98.645-367.531-223.061-114.603-171.264-116.224-393.515-4.139-564.736 92.72-140.755 250.052-232.373 428.782-232.373 253.546 0 464.030 184.375 504.69 426.364l0.417 3.001c34.688 213.376-67.456 424.021-256.981 530.048-55.68 31.147-117.035 51.157-184.064 60.075-19.371 2.56-83.541 4.736-96.427 3.243zM342.528 685.909c4.181-1.877 35.285-31.659 87.979-84.096l81.493-81.195 81.493 81.195c53.547 53.333 83.755 82.176 88.064 84.139 31.36 14.293 67.456-4.565 72.533-37.931 1.493-9.771-0.085-21.632-4.139-30.464-1.963-4.309-30.805-34.517-84.139-88.064l-81.195-81.493 81.195-81.493c53.333-53.547 82.176-83.755 84.139-88.064 14.293-31.36-4.565-67.456-37.931-72.533-2.353-0.343-5.069-0.54-7.831-0.54-8.183 0-15.963 1.721-22.999 4.822l0.366-0.144c-4.309 1.963-34.517 30.805-88.064 84.139l-81.493 81.195-81.493-81.195c-53.547-53.333-83.755-82.176-88.064-84.139-44.203-20.181-88.448 24.363-68.267 68.651 1.792 3.968 32.939 36.523 84.011 87.808l81.195 81.493-81.195 81.493c-52.437 52.693-82.219 83.797-84.096 87.979-14.379 31.531 4.523 67.712 37.973 72.661 9.643 1.451 21.76-0.256 30.464-4.224z" />
<glyph unicode="&#xe914;" glyph-name="eye-close" d="M130.987 847.787l-26.88-26.88 154.453-154.667-13.653-12.117c-28.773-26.682-55.572-53.833-81.135-82.121l-0.998-1.122c-21.655-25.148-42.961-52.811-62.739-81.606l-2.115-3.258-12.757-19.413 9.515-15.104c30.592-48.512 87.808-115.968 134.229-158.251 77.184-70.315 147.84-110.080 224.512-126.293 19.883-4.181 25.259-4.608 58.581-4.651 33.579-0.043 38.571 0.384 58.581 4.651 45.163 10.139 85.083 26.255 121.429 47.772l-1.92-1.052 13.397 7.851 163.499-163.499 53.76 53.76-762.88 762.88-26.88-26.88zM477.013 769.493c-29.739-4.437-84.48-18.987-84.48-22.485 0-0.683 13.269-14.507 29.525-30.72l29.525-29.483 11.008 2.603c55.296 13.099 117.12 2.389 178.347-30.891 64.555-35.072 136.277-100.437 195.072-177.749 10.624-13.952 10.752-14.208 7.936-18.475-7.125-10.923-44.8-56.192-60.245-72.448l-17.152-18.048 27.136-27.136c23.467-23.424 27.477-26.795 29.483-24.619l17.024 18.261c30.976 33.152 69.461 82.005 89.173 113.237l9.515 15.104-14.507 21.845c-46.891 70.357-118.101 146.816-181.163 194.475-56.704 42.88-111.189 69.163-169.771 81.92-16.683 3.627-25.003 4.352-55.467 4.821-5.136 0.152-11.179 0.239-17.242 0.239-8.341 0-16.644-0.164-24.905-0.489l1.188 0.037zM347.648 577.28l32.768-32.853-5.973-12.245c-16.427-33.835-19.157-76.757-7.253-113.195 28.544-87.253 129.067-130.389 210.261-90.283 3.422 1.908 7.397 3.591 11.56 4.839l0.429 0.11c2.261 0 58.496-55.808 57.301-56.917-0.427-0.384-7.68-4.181-16.128-8.363-19.086-9.677-41.385-18.141-64.648-24.218l-2.381-0.528c-16.683-4.224-21.205-4.651-50.731-4.651-25.6-0.043-35.328 0.64-46.080 3.115-68.523 15.829-130.773 53.376-198.613 119.68-25.244 24.445-48.714 50.282-70.462 77.552l-1.261 1.637c-21.888 27.648-20.992 23.339-8.448 39.808 22.84 29.703 45.95 56.073 70.615 80.898l-0.044-0.044c26.069 26.24 51.029 48.512 54.443 48.512 1.067 0 16.64-14.763 34.645-32.853zM530.347 392.363c-0.64-0.597-6.485-1.493-12.971-1.963-1.442-0.097-3.127-0.152-4.824-0.152-34.362 0-63.449 22.579-73.237 53.709l-0.147 0.544c-2.816 9.643-3.712 35.627-1.365 39.424 0.811 1.323 17.536-14.251 47.488-44.203 25.387-25.387 45.653-46.72 45.056-47.36z" />
<glyph unicode="&#xe915;" glyph-name="eye" d="M479.573 744.789c-83.883-9.472-167.125-53.035-252.971-132.395-47.573-43.947-99.413-105.387-132.48-157.013l-8.917-13.909 10.837-16.811c46.165-71.253 121.003-151.979 186.795-201.387 54.229-40.747 114.987-69.803 168.576-80.597 123.904-24.96 251.051 28.331 375.851 157.568 38.571 39.936 75.307 85.376 100.651 124.416l10.88 16.811-8.917 13.909c-42.581 66.517-109.483 140.928-172.117 191.317-93.013 74.88-187.691 108.288-278.187 98.091zM546.133 667.392c79.616-12.117 169.344-70.997 252.416-165.76 18.816-21.419 47.957-58.069 47.957-60.288 0-0.725-8.661-12.075-19.2-25.301-113.237-141.568-231.296-212.736-335.36-202.24-95.829 9.728-196.309 78.549-295.253 202.24-10.581 13.227-19.2 24.576-19.2 25.301 0 0.683 6.699 9.899 14.933 20.48 46.635 60.032 106.155 117.589 155.733 150.741 70.144 46.848 134.016 64.555 197.973 54.827zM475.307 589.483c-40.235-9.813-79.232-40.277-97.792-76.288-12.843-25.003-17.536-44.501-17.536-72.875 0.043-83.371 68.181-151.040 152.021-151.040 70.144 0 130.091 46.848 147.84 115.541 3.883 15.104 4.224 19.115 3.541 41.472-0.811 28.203-4.608 43.221-16.853 66.901-18.901 36.48-57.899 66.688-98.688 76.416-19.669 4.651-53.163 4.608-72.533-0.128zM525.824 516.224c23.125-4.395 43.947-20.139 54.101-40.917 24.747-50.517-11.861-109.483-67.925-109.483-0.060 0-0.132 0-0.204 0-41.756 0-75.605 33.85-75.605 75.605 0 3.975 0.307 7.879 0.898 11.688l-0.054-0.424c5.615 36.862 37.089 64.778 75.084 64.778 4.845 0 9.584-0.454 14.177-1.322l-0.472 0.074z" />
<glyph unicode="&#xe916;" glyph-name="chevron" d="M630.323 753.459c-5.176-1.215-9.717-2.886-13.98-5.028l0.36 0.164c-3.84-1.997-62.413-59.341-140.902-137.933-148.070-148.224-141.824-141.056-141.773-162.611 0-21.914-6.605-14.336 142.592-163.482 149.146-148.992 141.517-142.387 163.379-142.387 0.356-0.009 0.775-0.015 1.195-0.015 26.863 0 48.64 21.777 48.64 48.64 0 0.455-0.006 0.909-0.019 1.361l0.001-0.067c0 21.606 4.557 16.23-121.139 141.978l-113.818 113.92 113.818 113.92c93.082 93.082 114.534 115.456 117.504 122.163 2.33 5.897 3.681 12.729 3.681 19.876 0 7.197-1.37 14.074-3.863 20.385l0.131-0.376c-8.371 17.988-26.292 30.233-47.073 30.233-3.086 0-6.109-0.27-9.046-0.788l0.311 0.045z" />
<glyph unicode="&#xe917;" glyph-name="file-text" horiz-adv-x="1195" d="M418.133 911.104c-19.029-4.096-42.88-16.64-58.112-30.592-25.344-23.253-39.68-51.029-43.52-84.352-2.517-21.803-2.517-673.963 0-695.723 5.24-45.619 32.901-83.781 71.528-103.587l0.749-0.349c29.739-14.976 14.549-14.293 304.725-13.696l259.243 0.555 12.928 4.437c31.872 10.88 62.293 36.693 77.184 65.493 15.275 29.483 14.379 9.045 14.379 319.445l0.043 277.845-5.76 8.875c-9.216 14.165-244.779 248.021-253.525 251.648-6.485 2.731-29.227 3.072-187.179 2.944-145.835-0.128-182.187-0.683-192.683-2.944zM742.741 761.387c0-41.344 0.853-80.811 1.835-87.723 3.712-25.6 20.651-50.304 43.221-63.019 17.664-9.941 28.331-10.965 114.731-11.008l79.189-0.043-0.555-248.363-0.555-248.405-4.309-9.387c-3.724-7.008-8.214-13.022-13.479-18.258l-0.003-0.003c-16.811-16.341 3.541-15.275-280.149-14.677l-251.904 0.512-9.728 6.016c-6.225 4.113-11.565 8.911-16.117 14.388l-0.096 0.119c-13.397 17.536-12.587-6.144-12.587 366.763 0 370.261-0.683 348.587 11.776 365.781 6.393 8.931 15.204 15.762 25.479 19.589l0.377 0.123c5.632 2.005 40.32 2.603 160 2.688l152.832 0.085 0.043-75.179zM924.757 678.827c1.067-0.853-20.608-1.579-48.128-1.579-42.837 0-50.475 0.469-53.163 3.157-2.688 2.645-3.115 10.24-3.115 52.139v49.024l51.243-50.603c28.203-27.819 52.139-51.285 53.163-52.139zM528.64 625.792c-32.597-15.317-29.013-62.805 5.419-72.107 4.949-1.323 20.224-1.92 38.229-1.536 28.288 0.64 30.549 0.981 38.997 5.931 24.021 14.123 24.875 49.493 1.579 64.939-8.107 5.376-8.875 5.461-42.24 5.973-29.824 0.469-34.987 0.085-41.984-3.2zM523.349 432.597c-23.381-14.848-23.381-48.128 0-64.128l6.997-4.821h313.173l6.955 4.779c23.296 15.957 23.296 49.408 0.043 64.171l-9.045 5.717h-309.077l-9.045-5.717zM528.64 246.059c-20.011-10.411-28.032-32.171-19.157-51.712 4.096-9.045 13.824-18.091 21.803-20.352 2.944-0.811 74.027-1.493 157.952-1.493h152.661l8.619 6.016c25.045 17.408 22.528 52.907-4.693 66.859-7.083 3.627-13.909 3.797-159.317 3.797-133.717-0.043-152.619-0.384-157.867-3.115z" />
<glyph unicode="&#xe918;" glyph-name="filled-car-done" d="M956.587 832.213c-9.6-2.56-20.224-9.131-28.885-17.877-4.779-4.821-58.88-60.416-120.235-123.563-61.312-63.104-112.043-114.773-112.725-114.773-0.64 0-22.485 22.101-48.597 49.067-26.069 26.965-50.987 51.925-55.381 55.424-11.136 8.96-21.717 12.16-36.736 11.179-20.011-1.28-36.139-12.075-44.971-30.080-4.181-8.491-4.736-11.563-4.736-25.856 0-24.576 0.128-24.747 65.493-91.904 30.72-31.573 63.659-65.536 73.173-75.435 21.931-22.869 30.080-27.605 49.237-28.587 12.331-0.683 15.019-0.213 24.32 3.925 11.477 5.163-1.067-7.381 205.739 205.397 104.192 107.136 100.779 102.827 100.821 128.256 0.043 12.459-0.64 15.872-4.693 24.149-5.547 11.307-17.067 22.528-28.16 27.435-8.533 3.755-25.472 5.419-33.664 3.243zM242.347 718.379c-27.477-5.931-49.621-23.979-63.616-51.925-36.897-73.179-54.232-105.302-71.792-137.285l19.696 39.152-43.989-81.92-24.704-0.896c-20.907-0.768-25.728-1.493-31.701-4.651-8.96-4.693-16.768-12.501-21.632-21.547l-3.755-7.040-0.469-127.872c-0.512-144.896-1.067-138.283 12.843-153.173 12.416-13.269 19.456-15.061 59.819-15.147l33.621-0.043 8.32-14.336c16.299-27.372 39.633-49.047 67.539-62.895l0.941-0.423c24.576-11.947 38.101-14.933 68.267-14.933 23.040-0.043 27.136 0.427 40.96 4.651 42.24 12.8 74.283 37.803 95.957 74.837l7.765 13.227h84.139c83.541 0 84.139-0.043 85.248-3.541 2.56-8.107 21.973-34.219 33.707-45.355 15.531-14.763 24.491-20.992 42.624-29.653 74.709-35.712 163.797-6.016 205.952 68.693l5.461 9.685 118.4 1.024 9.301 5.12c9.472 5.248 17.963 15.104 21.717 25.301 1.408 3.797 2.048 26.069 2.133 74.197 0.128 75.861-0.64 83.883-10.453 107.52-14.834 34.746-41.958 61.857-75.781 76.317l-0.934 0.355c-8.789 3.541-85.589 20.949-92.459 20.949-1.195 0-17.067-14.805-35.328-32.939-35.541-35.2-41.899-39.808-65.664-47.317-16.725-5.291-42.965-5.291-59.733 0-24.789 7.808-30.891 12.459-75.093 57.429l-40.96 41.643-180.651-0.043c-158.208 0-180.565 0.299-179.712 2.517 2.987 7.808 68.565 128.683 71.509 131.883 2.663 2.5 5.911 4.41 9.514 5.502l0.171 0.045c3.669 1.024 40.661 1.707 92.715 1.707h86.613v12.544c0 24.96 10.667 52.779 27.52 71.68l8.576 9.643-115.755-0.128c-92.544-0.128-117.973-0.64-126.848-2.56zM274.645 292.907c17.835-6.784 30.336-18.688 38.997-37.205 4.181-8.96 4.651-11.819 4.651-28.715 0-17.579-0.341-19.499-5.461-30.293-20.907-44.16-76.843-53.803-109.867-18.901-37.376 39.509-18.944 104.405 33.408 117.76 10.496 2.688 27.349 1.493 38.272-2.645zM732.672 292.608c13.141-4.992 24.405-14.123 32.043-25.899 8.533-13.184 11.819-24.277 11.819-39.723 0-15.403-3.285-26.496-11.733-39.595-12.971-20.011-32.171-30.293-56.533-30.165-19.115 0.085-30.805 4.565-44.16 16.939-30.080 27.819-31.787 72.107-3.925 101.845 9.401 9.47 21.259 16.488 34.539 20.018l0.533 0.121c9.856 2.091 26.923 0.469 37.419-3.541z" />
<glyph unicode="&#xe919;" glyph-name="filled-car-repair" d="M811.819 808.917c-45.889-9.125-82.625-41.166-98.223-83.442l-0.294-0.91c-5.376-14.805-8.96-38.528-8.149-53.931l0.555-9.728-71.68-33.237c-39.424-18.261-74.112-35.072-77.056-37.291-16.256-12.245-16.896-40.789-1.195-55.68 9.259-8.747 25.899-12.501 36.907-8.32 3.883 1.451 4.48 0.811 9.941-10.496 3.413-7.083 8.448-14.293 12.288-17.579 6.446-5.501 14.874-8.848 24.085-8.848 12.694 0 23.904 6.358 30.618 16.063l0.081 0.124c4.096 5.803 5.291 9.515 5.845 18.219 0.597 9.557 0 12.416-4.907 23.040-3.072 6.613-5.248 12.373-4.864 12.715s16.683 8.021 36.267 17.067l35.584 16.427 9.984-9.216c18.219-16.896 41.131-28.16 66.475-32.768 16.768-3.029 27.051-2.987 45.227 0.171 83.541 14.592 131.499 105.472 96.469 182.784-16.773 35.837-47.98 62.547-85.934 72.913l-0.935 0.218c-9.96 2.258-21.397 3.552-33.137 3.552-8.454 0-16.752-0.671-24.843-1.963l0.892 0.117zM264.96 744.107c-5.845-1.28-14.677-4.523-19.541-7.125-11.989-6.485-28.715-22.357-34.133-32.427-2.432-4.523-24.192-57.387-48.299-117.461s-44.416-109.824-45.141-110.592c-0.725-0.768-10.027-4.437-20.651-8.192-10.667-3.755-24.448-9.472-30.592-12.715-29.483-15.488-52.523-44.373-62.549-78.421-2.645-9.088-3.072-20.395-3.627-100.437-0.683-102.528-0.768-101.547 12.288-114.603 11.435-11.435 17.792-12.8 59.691-12.8l35.968-0.043 6.784-10.624c8.747-13.696 31.061-36.053 45.269-45.355 49.109-32.128 108.416-37.931 161.749-15.829 27.605 11.435 59.648 37.675 74.624 61.184l6.827 10.624h174.080l6.784-10.624c8.747-13.696 31.061-36.053 45.269-45.355 49.109-32.128 108.416-37.931 161.749-15.829 27.605 11.435 59.648 37.675 74.624 61.184l6.827 10.624 57.301 0.043c65.493 0 68.736 0.512 81.024 12.8 13.013 13.013 12.971 12.587 12.288 110.379-0.555 81.664-0.768 86.443-4.139 96.981-8.32 25.728-17.493 40.661-35.755 58.155-23.253 22.272-38.571 28.459-100.523 40.747-22.166 4.049-38.076 7.516-53.837 11.365l6.69-1.381c-1.579 0.64-7.936 7.509-14.165 15.275-7.637 9.472-12.8 14.379-15.915 15.061-24.832 5.461-43.221 12.672-61.312 24.021-14.891 9.344-14.976 9.387-20.523 6.741-5.419-2.603-5.589-2.944-5.589-13.44 0-5.888-1.195-14.933-2.688-20.053-1.042-3.293-2.049-7.445-2.806-11.684l-0.096-0.647c-0.171-1.621-0.811-2.987-1.451-2.987s-3.115-3.285-5.461-7.296c-5.675-9.728-19.115-22.101-29.909-27.563-18.475-9.344-37.205-11.691-55.808-6.912-18.432 4.779-29.525 11.648-42.581 26.539-3.797 4.309-8.491 6.955-17.92 10.027-11.733 3.797-16 4.181-51.627 4.736l-38.827 0.597v77.141c0 73.557 0.171 77.44 3.328 82.645 6.357 10.411 9.344 10.965 54.443 10.411 39.723-0.512 40.704-0.597 48.981-4.907l8.448-4.395 37.547 17.536c20.651 9.643 38.229 17.792 39.040 18.091 3.115 1.28-1.024 7.893-11.819 19.029-16.219 16.668-36.546 29.258-59.348 36.14l-0.983 0.255c-8.661 2.645-24.064 2.944-161.451 3.328-123.733 0.299-153.856-0.043-162.56-1.963zM858.752 731.733c11.179-4.949 22.699-16.171 28.245-27.477 6.272-12.8 6.741-34.176 1.024-46.635-14.933-32.427-55.979-43.477-84.48-22.741-13.781 10.069-23.595 28.885-23.595 45.355 0 16.384 10.411 36.352 24.021 46.037 14.72 10.453 38.187 12.8 54.784 5.461zM372.224 658.688c2.816-1.451 6.613-5.12 8.448-8.107 3.157-5.205 3.328-9.088 3.328-82.688v-77.227h-83.797c-66.389 0-83.627 0.427-82.987 2.133 26.581 67.243 63.488 158.080 64.981 159.829 2.055 2.121 4.382 3.959 6.93 5.463l0.153 0.084c4.523 2.773 9.216 3.157 41.472 3.157 29.483 0 37.333-0.512 41.472-2.645zM272.256 318.123c28.373-5.205 52.821-26.368 64-55.296 3.243-8.363 3.968-13.525 3.968-28.16 0-20.224-3.2-31.275-13.781-47.317-27.989-42.539-88.747-50.56-126.421-16.683-37.12 33.408-38.827 88.661-3.755 123.733 20.992 20.992 46.976 29.099 75.989 23.723zM741.589 318.123c28.373-5.205 52.821-26.368 64-55.296 3.243-8.363 3.968-13.525 3.968-28.16 0-20.224-3.2-31.275-13.781-47.317-27.989-42.539-88.747-50.56-126.421-16.683-37.12 33.408-38.827 88.661-3.755 123.733 20.992 20.992 46.976 29.099 75.989 23.723z" />
<glyph unicode="&#xe91a;" glyph-name="filled-comment" d="M188.587 786.944c-28.162-7.231-49.779-29.317-56.219-57.21l-0.101-0.518c-3.883-16.555-3.797-473.856 0.085-491.051 4.821-21.205 20.096-41.216 38.571-50.56 19.157-9.728 4.48-9.259 299.179-9.259h271.36l56.363-56.192c49.152-49.024 57.173-56.363 62.805-57.387 13.397-2.432 25.003 3.413 30.421 15.275 3.072 6.741 3.157 18.432 3.2 320.171 0 210.944-0.555 316.8-1.792 324.224-5.231 31.251-28.606 55.873-58.742 62.874l-0.522 0.102c-13.653 2.901-632.832 2.432-644.608-0.469zM680.96 670.933c14.293-7.637 21.163-18.773 21.163-34.347 0.004-0.214 0.007-0.467 0.007-0.721 0-16.654-10.867-30.769-25.897-35.642l-0.265-0.074c-4.651-1.408-51.072-1.963-165.035-1.92-155.861 0.043-158.635 0.085-166.187 3.499-9.472 4.309-14.72 9.088-18.901 17.195-10.88 21.248-1.152 45.397 21.547 53.547 5.675 2.005 32.469 2.347 167.168 2.048 152.96-0.384 160.725-0.512 166.4-3.584zM683.861 516.267c9.429-5.419 16.213-14.763 18.432-25.344 3.157-15.104-5.163-32.341-19.413-40.064l-8.363-4.565h-325.035l-8.277 4.48c-25.813 14.080-26.411 50.944-1.067 65.493l8.875 5.077h325.973l8.875-5.077zM567.467 364.971c12.087-5.955 20.257-18.188 20.257-32.329 0-0.545-0.012-1.086-0.036-1.625l0.003 0.077c0-15.36-6.699-26.581-20.224-33.877-6.741-3.627-8.107-3.669-110.080-4.139-92.16-0.469-104.021-0.213-110.592 2.304-14.937 5.261-25.45 19.252-25.45 35.697 0 16.667 10.799 30.812 25.781 35.82l0.266 0.077c5.589 2.005 24.405 2.347 109.995 2.048 102.101-0.384 103.339-0.427 110.080-4.053z" />
<glyph unicode="&#xe91b;" glyph-name="filled-front-car" d="M232.064 805.931c-20.992-7.079-37.94-21.437-48.203-40.007l-0.224-0.441c-3.627-6.699-11.563-35.499-30.123-109.099-24.149-95.787-25.216-99.456-25.387-87.083-0.171 16.896-3.968 27.733-12.885 36.608-11.477 11.477-17.621 12.757-61.355 12.757-34.347 0-38.144-0.299-43.136-3.328-8.533-5.205-10.752-11.307-10.752-29.568 0-20.139 3.2-30.123 12.757-39.68 11.477-11.477 17.664-12.757 60.928-12.757 20.48 0 37.248-0.427 37.248-0.896 0-0.512-6.187-9.131-13.781-19.2-7.077-9.269-13.824-19.723-19.731-30.696l-0.621-1.262c-12.416-25.984-11.947-17.067-11.989-220.075-0.043-200.96-0.725-188.885 10.88-194.432 5.163-2.432 14.464-2.773 73.643-2.773s68.48 0.341 73.643 2.773c10.069 4.779 10.837 8.235 10.837 47.488v35.072h554.411l0.555-34.56c0.64-38.784 1.707-42.965 12.245-48 5.163-2.432 14.464-2.773 73.643-2.773 75.051 0 76.587 0.213 82.432 10.88 2.688 4.949 2.859 18.304 2.304 187.093-0.64 201.984-0.213 194.261-12.203 219.307-6.528 12.235-13.275 22.689-20.776 32.537l0.424-0.58c-4.371 5.494-8.906 11.752-13.165 18.207l-0.616 0.993c0 0.469 16.768 0.896 37.248 0.896 43.264 0 49.451 1.28 60.928 12.757 9.557 9.557 12.757 19.541 12.757 39.68 0 18.261-2.219 24.363-10.752 29.568-4.992 3.029-8.789 3.328-43.136 3.328-43.733 0-49.877-1.28-61.355-12.757-8.917-8.875-12.715-19.712-12.885-36.608-0.171-12.373-1.237-8.704-25.387 87.083-18.389 73.003-26.496 102.443-30.080 108.971-10.794 19.424-28.252 34.041-49.219 40.913l-0.616 0.175c-10.752 3.285-16.384 3.371-279.168 3.328l-268.203-0.043-11.136-3.797zM772.864 767.061c11.904-2.56 22.997-10.155 28.459-19.413 3.371-5.803 11.307-34.731 30.464-111.104l25.899-103.211h-346.155c-250.88 0-345.856 0.512-345.045 1.877 0.64 1.024 12.459 47.36 26.283 102.997 18.859 76.203 26.197 103.083 29.739 109.099 5.376 9.173 14.848 16.085 26.325 19.157 10.624 2.859 510.848 3.413 524.032 0.597zM221.312 444.331c21.504-8.064 35.797-30.165 34.261-52.907-2.475-35.755-36.736-58.24-71.253-46.72-12.928 4.352-27.264 18.688-31.616 31.616-14.592 43.733 26.027 83.925 68.608 68.011zM843.989 442.837c24.704-11.947 36.181-39.893 27.307-66.517-4.352-12.928-18.688-27.264-31.616-31.616-34.517-11.52-68.779 10.965-71.253 46.72-0.041 0.788-0.064 1.71-0.064 2.638 0 22.598 13.812 41.97 33.454 50.136l0.359 0.132c12.373 4.907 29.952 4.267 41.813-1.493zM703.147 340.48c0-0.939-7.424-20.309-16.469-43.093-15.573-39.168-16.939-41.856-25.259-50.048-6.4-6.272-11.008-9.216-16.725-10.667-11.221-2.816-254.165-2.816-265.387 0-5.717 1.451-10.325 4.395-16.725 10.667-8.32 8.192-9.685 10.88-25.259 50.048-3.627 7.952-9.197 22.204-14.421 36.622l-2.048 6.471c0 1.109 65.109 1.707 191.147 1.707s191.147-0.597 191.147-1.707z" />
<glyph unicode="&#xe91c;" glyph-name="filled-heart" horiz-adv-x="1205" d="M352.678 923.738c-118.998-8.597-219.438-80.295-268.709-181.495l-0.844-1.921c-18.764-37.224-30.453-80.905-32.149-127.137l-0.016-0.562c-3.915-81.92 22.889-160.407 76.74-224.858 6.927-8.252 109.086-111.375 227.027-229.135 237.448-237.026 220.28-221.606 247.627-221.606 27.407 0 10.18-15.42 247.627 221.606 117.941 117.76 220.1 220.883 227.027 229.135 43.55 52.284 67.223 107.159 75.656 175.586 0.903 9.816 1.418 21.229 1.418 32.762 0 22.516-1.962 44.573-5.724 66.011l0.331-2.276c-12.185 58.892-38.062 110.41-74.193 152.944l0.405-0.488c-43.068 51.019-111.676 91.377-178.899 105.352-20.102 4.352-43.194 6.844-66.868 6.844-53.908 0-104.798-12.923-149.741-35.839l1.871 0.866c-26.142-13.372-35.057-19.215-60.416-39.394l-18.613-14.878-15.902 13.192c-56.375 47.377-129.753 76.161-209.854 76.161-8.375 0-16.676-0.315-24.893-0.933l1.094 0.066z" />
<glyph unicode="&#xe91d;" glyph-name="filled-home" d="M496.64 871.765c-6.699-2.261-33.109-27.989-205.269-199.979-133.717-133.547-198.656-199.552-200.96-204.245-8.235-16.939-5.248-36.523 7.509-49.28 10.752-10.752 18.901-12.928 48.299-12.928h24.448v-132.693c0-82.261 0.683-136.789 1.792-143.445 7.167-41.93 33.836-76.401 70.156-94.214l0.756-0.335c22.315-10.752 28.331-11.904 67.499-12.843 41.6-1.024 48.469 0.384 60.331 12.245 13.184 13.184 12.8 9.131 12.885 137.344 0.043 90.453 0.512 114.944 2.347 120.021 3.371 9.429 10.283 17.664 19.371 22.997l8.064 4.736 94.549 0.469c107.264 0.555 105.728 0.725 118.784-12.331 13.184-13.184 12.8-9.173 12.8-136.619s-0.384-123.435 12.8-136.619c11.819-11.819 18.731-13.227 60.331-12.288 39.808 0.896 47.659 2.56 72.789 15.445 10.411 5.333 17.323 10.709 29.099 22.443 16.64 16.683 25.643 31.403 33.451 54.699l3.968 11.947 1.024 279.040h24.363c29.184 0 36.907 2.048 47.957 12.8 13.056 12.672 16.128 32.256 7.808 49.408-2.304 4.693-67.2 70.656-200.96 204.245-181.419 181.205-198.272 197.589-205.995 200.107-4.415 1.581-9.508 2.495-14.815 2.495-5.443 0-10.661-0.961-15.494-2.724l0.314 0.1z" />
<glyph unicode="&#xe91e;" glyph-name="filled-king" horiz-adv-x="1297" d="M653.722 921.566c-32.387-11.221-56.256-39.071-61.578-73.071l-0.067-0.521c-0.749-4.364-1.177-9.39-1.177-14.517 0-23.553 9.036-44.995 23.83-61.049l-0.057 0.063 9.762-10.377-78.985-138.308c-51.2-89.702-82.057-141.449-87.723-147.388-11.148-11.302-26.632-18.303-43.75-18.303-6.309 0-12.396 0.951-18.125 2.717l0.435-0.116c-4.506 1.434-40.55 21.982-80.009 45.67l-71.748 43.008 3.004 8.533c17.613 49.971-12.698 106.428-64.512 120.218-50.517 13.449-103.083-19.866-113.937-72.158-7.031-33.655 7.236-70.042 35.84-91.819 15.838-12.015 31.198-17.203 52.634-17.818l18.091-0.478 63.556-169.506 69.086-184.047 5.53-14.609h737.894l69.154 184.73 69.222 184.661 8.602-1.161c22.733-3.004 54.135 9.353 72.226 28.467 15.817 16.449 25.559 38.841 25.559 63.509 0 36.542-21.379 68.091-52.311 82.822l-0.554 0.238c-13.722 6.485-16.111 6.895-38.434 6.895-22.255 0-24.713-0.41-38.298-6.827-31.917-14.886-53.641-46.702-53.641-83.593 0-8.635 1.19-16.992 3.415-24.916l-0.155 0.647c1.516-4.322 2.583-9.337 2.991-14.537l0.013-0.208c-26.272-17.195-73.966-45.69-122.177-73.388l-23.846-12.628c-8.192-3.618-13.107-4.301-26.692-3.482-18.5 1.092-31.676 7.031-41.643 18.91-3.004 3.55-41.097 68.745-84.651 144.998l-79.189 138.513 8.806 9.967c4.779 5.461 11.878 16.316 15.701 24.166 6.622 13.38 7.031 15.497 7.031 38.025 0 22.255-0.478 24.713-6.895 38.366-9.054 19.524-24.194 34.951-42.947 44.135l-0.538 0.238c-14.746 7.236-18.022 7.987-36.932 8.602-15.906 0.546-23.415-0.273-31.812-3.277z" />
<glyph unicode="&#xe91f;" glyph-name="done-checked" horiz-adv-x="1451" d="M1350.912 957.525c-27.136-4.608-11.179 10.581-436.992-414.891l-402.603-402.261-187.392 187.477c-163.328 163.413-189.184 188.416-201.813 194.56-43.264 21.248-91.989 3.84-112.981-40.448-6.059-12.8-7.083-18.005-7.083-34.56-0.117-1.468-0.183-3.178-0.183-4.904 0-11.291 2.848-21.917 7.865-31.198l-0.172 0.348c7.168-15.275 20.224-28.843 230.485-238.763 176.043-175.787 225.536-223.829 235.008-228.523 10.496-5.12 15.531-5.888 37.547-5.888 22.869 0.085 26.539 0.683 37.461 6.485 18.091 9.728 883.285 876.203 890.709 892.16 5.090 11.004 8.059 23.881 8.059 37.452 0 13.644-3.001 26.586-8.379 38.204l0.234-0.563c-10.923 21.504-35.499 40.704-56.491 44.117-18.517 2.987-21.845 3.157-33.28 1.195z" />
<glyph unicode="&#xe920;" d="M703.866 365.167v-159.030c0.006-13.363-3.706-26.464-10.733-37.83-7.021-11.366-17.075-20.557-29.024-26.528l-148.079-74.099c-5.486-2.714-11.575-3.987-17.69-3.699-6.115 0.294-12.055 2.138-17.259 5.363s-9.498 7.725-12.479 13.075c-2.981 5.344-4.549 11.366-4.556 17.485v155.789l199.717 89.146c13.677 6.121 27.046 12.897 40.102 20.328zM408.806 600.093c6.061 13.603 12.767 26.905 20.119 39.907h-158.683c-13.338-0.025-26.406-3.754-37.75-10.771s-20.514-17.047-26.491-28.971l-74.218-148.225c-2.737-5.489-4.026-11.585-3.746-17.713s2.12-12.080 5.347-17.296c3.227-5.216 7.732-9.522 13.089-12.508s11.388-4.556 17.521-4.557h155.712l89.1 200.134z" />
<glyph unicode="&#xe921;" glyph-name="filled-notebook" d="M293.845 813.099c-12.416-6.187-21.163-15.787-25.899-28.373-2.773-7.467-3.413-13.312-3.413-31.317v-22.101h-19.2c-32.896-0.043-49.92-4.48-68.949-18.091-11.831-9.277-21.376-20.909-28.027-34.238l-0.261-0.578c-8.235-18.944-8.107-13.995-8.107-274.048-0.043-165.931 0.555-247.381 1.792-254.293 3.115-17.28 13.44-36.181 26.325-48.256 12.16-11.392 21.803-16.981 37.632-21.845 9.685-3.029 23.68-3.157 306.261-3.157h296.107l12.032 3.797c28.39 9.023 50.304 30.95 59.132 58.711l0.175 0.638 3.755 11.947v251.733c0 239.531-0.171 252.245-3.157 261.973-7.765 25.429-24.789 45.611-47.488 56.277-15.019 7.083-28.331 9.387-53.888 9.429h-19.2v21.035c0 25.216-2.517 35.072-11.861 46.933-9.941 12.587-23.893 19.072-40.875 19.072-21.632 0-38.016-9.984-48.341-29.483-3.328-6.315-3.883-10.325-4.437-32.384l-0.597-25.173h-88.107l-0.64 24.32c-0.512 20.139-1.237 25.643-4.181 32.085-5.097 11.248-13.801 20.118-24.61 25.297l-0.307 0.133c-8.875 4.437-12.331 5.205-23.509 5.205s-14.635-0.768-23.509-5.205c-10.773-5.196-19.308-13.606-24.523-23.974l-0.138-0.303c-3.328-6.315-3.883-10.325-4.437-32.384l-0.597-25.173h-88.107l-0.64 24.32c-0.512 20.139-1.237 25.643-4.181 32.085-5.097 11.248-13.801 20.118-24.61 25.297l-0.307 0.133c-8.875 4.437-12.331 5.205-23.509 5.205-11.221 0-14.635-0.768-23.595-5.248zM660.352 514.645c11.309-5.94 18.891-17.604 18.891-31.038 0-13.67-7.85-25.507-19.287-31.249l-0.201-0.092-8.832-4.309-140.715 0.427c-138.965 0.469-140.8 0.512-147.541 4.053-20.181 10.539-24.235 41.131-7.424 56.363 10.496 9.515 2.347 9.045 156.416 9.088 137.771 0.085 142.336 0 148.693-3.243zM569.643 356.608c13.355-5.589 20.864-17.195 20.864-32.341s-7.509-26.752-20.864-32.341c-9.515-3.968-194.517-3.968-204.032 0-13.355 5.589-20.864 17.195-20.864 32.341 0 14.933 7.381 26.581 20.48 32.256 9.045 3.925 195.029 4.011 204.416 0.085z" />
<glyph unicode="&#xe922;" glyph-name="filled-plus" d="M226.517 958.165c-7.253-0.768-21.12-3.328-30.763-5.632-95.915-23.125-169.173-98.987-191.061-197.845l-3.84-17.408v-286.72c0-263.253 0.256-287.957 2.901-302.080 6.912-36.267 20.267-69.504 39.509-98.347 38.997-58.325 98.091-96.853 169.216-110.379 14.080-2.645 38.656-2.901 299.52-2.901s285.44 0.256 299.52 2.901c24.454 4.442 46.272 11.684 66.593 21.531l-1.526-0.667c76.629 36.736 127.616 103.381 143.659 187.861 2.645 14.080 2.901 38.656 2.901 299.52s-0.256 285.44-2.901 299.52c-4.442 24.454-11.684 46.272-21.531 66.593l0.667-1.526c-36.48 76.117-101.205 126.037-186.155 143.531-12.331 2.56-41.003 2.859-293.547 3.157-153.941 0.171-285.867-0.341-293.163-1.109zM529.835 735.531c3.712-1.792 9.6-6.187 13.099-9.771 11.947-12.288 11.733-9.984 11.733-128.725v-106.368h106.368c118.741 0 116.437 0.213 128.725-11.733 9.6-9.301 13.227-17.792 13.227-30.933s-3.627-21.632-13.227-30.933c-12.288-11.947-9.984-11.733-128.725-11.733h-106.368v-106.368c0-118.741 0.213-116.437-11.733-128.725-9.301-9.6-17.792-13.227-30.933-13.227s-21.632 3.627-30.933 13.227c-11.947 12.288-11.733 9.984-11.733 128.725v106.368h-106.368c-118.741 0-116.437-0.213-128.725 11.733-17.963 17.451-18.475 43.307-1.195 60.629 13.355 13.355 9.6 12.971 129.92 12.971h106.368v106.453c0 114.347-0.043 113.664 8.832 125.696 4.139 5.589 12.288 11.349 20.949 14.848 7.125 2.859 22.571 1.792 30.72-2.133z" />
<glyph unicode="&#xe923;" d="M885.555 803.345c-0.966 4.488-3.206 8.603-6.451 11.85s-7.36 5.487-11.853 6.453c-48.307 10.352-86.099 10.352-123.757 10.352-113.357 0-193.532-44.393-255.492-111.019-32.911-35.652-59.693-76.506-79.259-120.906l-89.1-200.149-33.711-33.711c-9.001-9.004-14.058-21.213-14.058-33.944s5.057-24.943 14.058-33.942l76.363-76.378c9.003-9.005 21.213-14.061 33.944-14.061s24.94 5.056 33.943 14.061l33.801 33.709 199.716 89.145c44.41 19.651 85.267 46.518 120.902 79.514 66.688 62.111 111.309 142.3 111.309 255.164 0.147 37.747 0.147 75.553-10.355 123.862v0zM704.026 579.956c-11.872 0-23.475 3.519-33.344 10.114-9.862 6.594-17.555 15.966-22.099 26.932s-5.728 23.031-3.418 34.672c2.317 11.641 8.032 22.334 16.429 30.726 8.39 8.392 19.085 14.108 30.726 16.424 11.635 2.316 23.706 1.127 34.669-3.415s20.339-12.234 26.931-22.102c6.598-9.869 10.112-21.471 10.112-33.34 0-15.916-6.317-31.18-17.574-42.433-11.251-11.254-26.515-17.577-42.432-17.577v0z" />
<glyph unicode="&#xe924;" glyph-name="filled-road" horiz-adv-x="1365" d="M394.283 862.208c-10.197-2.432-22.016-11.947-26.453-21.333-4.139-8.661-144.811-754.048-144.811-767.147 0-16.427 12.075-33.408 27.861-39.125 5.461-1.963 57.643-2.731 197.973-2.859l190.592-0.171v52.907c0 54.613 1.408 66.005 9.557 77.44 14.635 20.608 52.779 20.48 67.499-0.256 7.723-10.795 9.301-24.064 9.344-78.336l0.043-51.755 190.592 0.171c140.331 0.128 192.512 0.896 197.973 2.859 15.787 5.717 27.861 22.699 27.861 39.125 0 14.763-140.885 759.381-145.323 767.915-3.647 5.88-8.244 10.804-13.632 14.702l-0.149 0.103-9.643 6.827-247.68 1.323v-51.157c0-28.8-1.067-56.32-2.517-62.933-6.912-32.256-46.805-43.819-70.272-20.352-12.16 12.16-13.653 21.163-13.653 81.792v52.48l-118.912-0.213c-65.408-0.128-122.197-1.024-126.251-2.005zM704.299 536.064c6.178-3.801 11.17-8.972 14.654-15.11l0.108-0.207c5.717-10.155 5.717-10.197 5.717-72.747 0-60.373-0.213-62.933-5.077-72.064-7.161-13.394-21.051-22.353-37.035-22.353s-29.874 8.959-36.925 22.129l-0.11 0.224c-4.864 9.131-5.077 11.691-5.077 72.064 0 62.549 0 62.592 5.717 72.747 7.595 13.568 19.84 20.48 36.395 20.48 8.789 0 15.232-1.536 21.632-5.163z" />
<glyph unicode="&#xe925;" d="M780.851 211.206v-38.4c0-5.094-2.022-9.978-5.626-13.574-3.597-3.603-8.486-5.626-13.574-5.626h-499.201c-5.092 0-9.976 2.022-13.576 5.626-3.601 3.597-5.624 8.48-5.624 13.574v38.4c0 5.094 2.023 9.978 5.624 13.574 3.601 3.603 8.484 5.626 13.576 5.626h499.201c5.088 0 9.978-2.022 13.574-5.626 3.603-3.597 5.626-8.48 5.626-13.574z" />
<glyph unicode="&#xe926;" glyph-name="filled-search" d="M392.832 872.832c-63.573-6.144-131.285-33.749-179.499-73.216-38.789-31.511-70.177-70.526-92.241-114.986l-0.9-2.006c-21.817-43.625-34.588-95.042-34.588-149.442 0-92.103 36.607-175.656 96.066-236.903l-0.081 0.084c62.229-64.204 149.264-104.054 245.606-104.054 38.703 0 75.904 6.431 110.592 18.283l-2.406-0.714c31.832 11.554 59.321 25.571 84.734 42.463l-1.449-0.906 17.067 11.819 118.613-118.229c114.773-114.475 118.912-118.357 127.872-120.96 11.563-3.413 16-3.413 27.008-0.128 11.904 3.541 23.296 14.933 26.837 26.837 3.285 11.008 3.285 15.445-0.128 27.008-2.603 8.96-6.485 13.099-120.96 127.872l-118.229 118.613 11.819 17.067c15.987 23.964 30.004 51.453 40.681 80.554l0.877 2.731c37.248 112 13.824 237.355-60.971 326.315-33.067 39.296-68.181 66.901-113.195 88.875-43.723 21.862-95.255 34.659-149.775 34.659-11.745 0-23.35-0.594-34.789-1.753l1.439 0.118z" />
<glyph unicode="&#xe927;" glyph-name="double-arrow" d="M283.853 795.494c-4.927-1.702-9.154-3.673-13.134-6.019l0.334 0.182c-3.123-1.946-46.49-44.493-96.358-94.515-85.35-85.658-90.88-91.546-94.259-100.864-2.176-5.424-3.439-11.711-3.439-18.294 0-14.063 5.762-26.781 15.054-35.92l0.007-0.007c9.146-9.299 21.864-15.061 35.927-15.061 6.583 0 12.87 1.262 18.634 3.558l-0.34-0.12c9.011 3.328 13.926 7.68 55.552 48.998l45.619 45.363v-481.843l3.686-9.779c7.117-19.046 27.29-33.024 47.514-33.024 20.275 0 40.448 13.978 47.565 33.024l3.635 9.779v481.843l45.67-45.363c41.626-41.318 46.541-45.67 55.552-48.998 19.456-7.168 39.731-2.816 54.17 11.622 9.331 9.135 15.116 21.861 15.116 35.937 0 6.579-1.264 12.863-3.562 18.623l0.119-0.339c-3.43 9.318-8.96 15.206-95.13 101.683-73.216 73.37-93.338 92.672-100.506 96.205-10.803 5.325-26.982 6.758-37.427 3.328zM715.674 796.109c-15.821-3.174-29.696-14.438-36.762-29.798l-3.942-8.55-0.922-486.298-45.619 45.517c-50.995 50.944-53.862 52.992-73.779 52.992-0.168 0.002-0.367 0.003-0.566 0.003-27.287 0-49.408-22.121-49.408-49.408 0-0.199 0.001-0.398 0.004-0.597v0.030c0-21.453-2.509-18.381 100.813-121.498 102.4-102.144 99.174-99.43 119.859-99.43 20.634 0 17.408-2.714 119.808 99.43 103.322 103.066 100.915 100.198 100.915 121.498 0.001 0.138 0.002 0.301 0.002 0.463 0 27.344-22.167 49.51-49.51 49.51-0.181 0-0.361-0.001-0.542-0.003h0.027c-20.122 0-22.989-2.048-73.523-52.582l-45.158-45.21-0.819 242.79-0.87 242.79-3.942 8.704c-9.626 21.299-33.843 34.099-56.064 29.645z" />
<glyph unicode="&#xe928;" glyph-name="filled-transfer" d="M655.132 915.001c-10.468-3.755-17.124-8.818-32.597-24.576-17.863-18.318-21.732-25.714-21.732-42.212-0.057-21.618 3.243-25.941 60.985-79.531l20.878-19.456-196.665-0.967c-211.74-1.024-207.36-0.853-243.94-10.183-60.405-15.684-112.135-46.827-152.464-88.97l-0.112-0.118c-55.187-57.062-89.198-134.904-89.198-220.69 0-36.271 6.080-71.123 17.277-103.59l-0.669 2.232c17.522-52.224 31.687-68.324 60.075-68.38 16.782 0 27.762 6.144 47.445 26.453 26.852 27.762 29.241 38.4 16.555 74.297-10.183 28.9-13.767 51.029-12.459 77.483 4.551 92.615 72.647 167.31 165.262 181.134 13.71 2.048 47.673 2.389 202.98 2.048l186.539-0.455-36.978-34.816c-42.667-40.164-45.568-44.26-45.568-64.057 0.057-17.579 5.006-27.022 24.007-45.796 20.082-19.854 29.013-24.178 47.673-23.097 11.264 0.683 14.564 1.593 21.561 6.144 4.551 2.901 51.769 48.924 104.96 102.229 107.179 107.52 103.196 102.684 102.855 125.099 0.018 0.442 0.029 0.961 0.029 1.483 0 6.647-1.696 12.898-4.68 18.343l0.1-0.199c-3.3 6.372-29.582 33.678-103.936 107.804-96.028 95.744-99.897 99.385-108.828 101.945-4.56 1.601-9.817 2.525-15.291 2.525-5.020 0-9.858-0.778-14.401-2.219l0.337 0.092z" />
<glyph unicode="&#xe929;" glyph-name="filled-user" d="M486.4 872.789c-85.717-9.685-159.061-73.984-180.864-158.549-10.283-39.808-7.595-90.24 6.784-127.659 22.442-56.963 66.455-101.31 121.715-123.679l1.464-0.524c46.549-18.347 106.453-18.347 153.003 0 57.259 22.528 103.68 70.016 123.989 126.933 16.939 47.445 16.341 103.083-1.536 148.523-25.173 64.043-80.427 113.195-146.048 129.92-16.001 4.108-34.371 6.466-53.291 6.466-8.885 0-17.648-0.52-26.261-1.531l1.045 0.1zM401.067 360.789c-86.357-9.685-159.872-74.923-181.547-161.109-4.565-18.219-6.187-42.368-6.187-92.629 0-56.875 0.64-60.501 13.056-72.917 13.781-13.739-7.381-12.8 285.611-12.8 293.291 0 271.829-0.981 285.739 12.928 12.117 12.16 12.928 16.725 12.928 73.643 0 49.451-1.621 73.643-6.187 91.776-12.843 51.115-45.397 97.792-87.68 125.739-31.957 21.077-60.245 31.531-95.915 35.456-19.584 2.133-200.619 2.048-219.819-0.085z" />
<glyph unicode="&#xe92a;" glyph-name="filled-warning" d="M471.040 830.037c-54.244-6.13-103.548-22.459-147.607-47.055l1.986 1.018c-105.301-59.264-174.677-159.232-193.536-278.827-4.139-26.069-4.139-84.864 0-110.933 10.24-64.853 34.56-122.795 73.472-174.933 15.531-20.821 53.717-59.008 74.539-74.539 68.949-51.456 146.645-77.355 232.107-77.355s163.157 25.899 232.107 77.355c20.821 15.531 59.008 53.717 74.539 74.539 66.645 89.301 91.307 198.485 69.376 307.2-30.165 149.717-151.595 269.781-301.781 298.411-22.898 4.408-49.232 6.931-76.156 6.931-13.747 0-27.341-0.658-40.751-1.943l1.707 0.132zM528.597 658.517c9.259-3.285 21.461-16.683 24.192-26.539 1.493-5.376 1.92-32.512 1.536-101.333l-0.512-93.995-5.163-8.405c-7.549-12.6-21.13-20.904-36.651-20.904s-29.102 8.304-36.543 20.711l-0.107 0.193-5.163 8.405-0.512 93.995c-0.341 68.309 0.043 96 1.493 101.248 2.304 8.192 13.056 21.376 20.693 25.344 11.051 5.717 23.083 6.144 36.736 1.28zM533.547 316.117c8.917-5.589 17.28-15.744 19.456-23.424 6.741-24.277-7.211-48.981-30.933-54.656-27.947-6.699-55.168 16.853-52.224 45.269 1.236 15.733 11.102 28.894 24.82 34.841l0.268 0.103c10.923 5.12 28.757 4.096 38.613-2.133z" />
<glyph unicode="&#xe92b;" glyph-name="filter" d="M218.752 771.371c-27.392-12.459-42.752-38.912-40.917-70.571 1.408-24.491-0.683-21.76 115.669-149.547l104.107-114.347v-82.219c0.043-54.059 0.683-83.883 1.877-87.040 1.459-3.42 3.323-6.365 5.581-8.957l-0.034 0.040c2.048-2.219 43.392-33.877 91.947-70.272 91.733-68.907 93.269-69.845 106.368-67.371 7.339 1.365 17.579 10.027 20.693 17.493 1.877 4.48 2.304 32.896 2.347 151.936v146.389l104.107 114.347c116.352 127.787 114.261 125.056 115.669 149.547 1.877 32.171-14.293 59.435-42.027 70.827l-9.685 3.968-566.613-0.128-9.088-4.096zM785.365 714.837c4.48-4.096 3.84-11.392-1.579-17.963-2.603-3.115-50.731-56.32-107.051-118.272-56.277-61.909-103.723-115.285-105.387-118.528-2.816-5.547-3.029-14.421-3.029-129.365v-123.349l-112.64 84.48v81.109c0 74.453-0.256 81.664-3.029 87.125-1.664 3.243-49.109 56.619-105.387 118.528-21.756 23.577-56.7 62.074-91.492 100.711l-15.559 17.561c-5.333 6.443-6.016 13.056-1.877 17.664 2.731 2.987 13.44 3.115 273.365 3.115 249.344 0 270.763-0.213 273.664-2.816z" />
<glyph unicode="&#xe92c;" d="M895.994 556.808c0-15.276-6.067-29.927-16.87-40.729s-25.453-16.871-40.73-16.871c-3.104 0.076-6.189 0.397-9.242 0.96l-86.758-231.361h-460.802l-86.76 231.361c-3.050-0.563-6.14-0.884-9.24-0.96-12.556-0.067-24.794 3.94-34.879 11.42s-17.471 18.028-21.052 30.062c-3.581 12.034-3.162 24.905 1.194 36.681s12.413 21.822 22.963 28.63c10.55 6.808 23.023 10.010 35.548 9.127s24.425-5.804 33.915-14.025c9.49-8.221 16.058-19.298 18.718-31.569s1.268-25.073-3.965-36.486l86.76-52.080c4.383-2.619 9.245-4.337 14.301-5.055s10.203-0.419 15.142 0.877c4.939 1.296 9.569 3.564 13.621 6.671s7.443 6.992 9.976 11.426l97.8 171.12c-9.224 7.508-15.899 17.688-19.106 29.142s-2.79 23.619 1.194 34.826c3.984 11.207 11.34 20.906 21.058 27.764s21.32 10.541 33.214 10.541c11.894 0 23.497-3.682 33.214-10.541s17.074-16.557 21.058-27.764c3.985-11.207 4.402-23.372 1.194-34.826s-9.882-21.633-19.106-29.142l97.798-171.12c2.534-4.434 5.926-8.318 9.978-11.426s8.685-5.375 13.619-6.671c4.941-1.297 10.086-1.595 15.142-0.877s9.92 2.436 14.304 5.055l86.88 52.080c-3.469 7.441-5.274 15.55-5.28 23.76 0 15.277 6.067 29.928 16.87 40.73s25.453 16.87 40.73 16.87c15.277 0 29.926-6.068 40.73-16.87s16.87-25.453 16.87-40.73z" />
<glyph unicode="&#xe92d;" glyph-name="flash-sharp" d="M548.693 810.837c-5.655-2.902-10.507-6.446-14.724-10.628l0.004 0.004c-3.371-3.627-79.531-94.72-169.216-202.411-146.773-176.299-163.2-196.651-165.035-204.16-0.563-2.302-0.885-4.946-0.885-7.664 0-13.006 7.385-24.288 18.191-29.879l0.188-0.088c7.339-3.541 9.045-3.584 118.699-3.584 98.688 0 111.232-0.299 111.232-2.603 0-1.451-8.064-50.944-17.92-110.037s-17.92-110.763-17.92-114.859c0-12.672 4.48-22.443 14.421-31.531 10.069-9.216 18.176-12.331 32.085-12.331 0.355-0.012 0.772-0.018 1.19-0.018 9.399 0 18.025 3.307 24.779 8.821l-0.071-0.056c2.731 2.133 80.043 93.952 171.733 203.989 178.219 213.888 172.288 206.165 169.472 221.056-1.956 9.568-7.32 17.634-14.741 23.051l-0.107 0.074-6.784 4.736-113.237 0.469c-99.541 0.384-113.195 0.768-113.195 3.029 0 1.408 8.064 50.901 17.92 109.995s17.92 110.635 17.92 114.517c0.005 0.232 0.008 0.505 0.008 0.778 0 10.674-4.161 20.376-10.949 27.572l0.019-0.020c-8.294 9.75-20.573 15.894-34.287 15.894-6.816 0-13.278-1.518-19.066-4.234l0.275 0.116z" />
<glyph unicode="&#xe92e;" glyph-name="food-truck" d="M86.613 719.232c-24.619-5.803-45.312-27.307-50.603-52.437-1.323-6.315-1.877-69.973-1.877-211.84v-202.795l-6.997-1.109c-8.573-1.249-16.054-5.206-21.712-10.96l-0.005-0.005-5.419-5.077v-51.883l5.077-4.736c11.307-10.581 13.995-11.093 60.843-11.648l42.88-0.555 3.456-10.069c5.973-17.451 15.531-32.469 29.483-46.336 10.667-10.581 16.299-14.592 29.184-20.779 19.243-9.216 28.757-11.349 50.944-11.349 21.589 0 31.701 2.133 48.64 10.325 31.573 15.189 54.101 41.899 62.165 73.643l3.157 12.459 386.005 0.853 1.024-4.693c4.864-23.083 15.957-43.307 33.28-60.459 10.667-10.581 16.299-14.592 29.184-20.779 19.243-9.216 28.757-11.349 50.944-11.349 20.053 0 31.189 2.133 45.824 8.704 29.653 13.355 52.992 38.571 62.848 68.011l3.755 11.179 26.155 0.939c28.459 0.981 34.048 2.475 43.605 11.435l5.547 5.205v52.949l-5.333 4.48c-5.838 5.374-13.253 9.118-21.476 10.463l-0.242 0.033-6.955 1.109-0.469 89.045-0.512 89.045-6.357 12.885c-6.894 14.673-18.593 26.137-33.032 32.559l-0.419 0.166-11.392 5.419-98.133 0.853c-91.819 0.811-98.56 1.067-104.619 4.096-8.066 4.296-14.041 11.621-16.458 20.419l-0.054 0.231c-1.365 4.736-1.792 24.277-1.408 64 0.597 64.981 0.768 65.963 14.891 75.947l7.253 5.12 54.443 0.512c0.555-0.001 1.212-0.001 1.869-0.001 18.504 0 36.925 0.357 55.256 1.063l-2.64-0.081c0 0.256-3.115 7.68-6.955 16.512-10.411 23.979-19.541 35.115-35.712 43.435-15.317 7.893-2.645 7.637-367.787 7.509-193.323-0.085-347.563-0.853-351.147-1.664zM275.456 621.568c1.579-8.363 10.069-20.779 18.304-26.752 13.312-9.643 29.483-12.416 45.141-7.765 15.872 4.693 31.573 20.523 34.176 34.432 1.451 7.68 2.987 7.211 5.376-1.749 4.309-16.128 20.053-29.995 38.443-33.835 24.576-5.163 51.797 10.752 57.984 33.835 2.133 7.979 4.693 9.941 4.693 3.627 0.043-5.461 9.045-20.437 15.701-26.069 28.629-24.192 73.259-10.965 82.56 24.448 1.152 4.395 2.475 6.869 2.901 5.461 6.869-20.864 13.653-29.909 27.52-36.693 10.624-5.205 24.789-7.125 33.877-4.608l6.4 1.792v-147.669l-3.968-7.552c-2.176-4.139-7.253-9.813-11.264-12.629l-7.253-5.12-246.016-0.469c-189.184-0.384-247.808-0.043-253.611 1.579-10.258 3.419-18.239 11.204-21.854 21.092l-0.077 0.241c-1.493 5.035-2.091 27.008-2.091 78.763v71.765l5.547-1.579c24.235-6.955 52.48 9.387 60.203 34.816 1.792 5.845 2.389 6.528 3.328 3.712 0.597-1.877 2.56-6.613 4.309-10.496 12.544-27.819 47.531-37.675 73.899-20.736 9.6 6.144 19.584 19.925 21.077 29.056 1.195 7.509 3.2 7.083 4.693-0.896zM860.843 241.408c26.795-13.397 38.059-46.976 24.875-74.24-5.035-10.368-20.053-23.68-30.805-27.264-20.608-6.827-41.045-2.347-56.576 12.501-10.652 10.039-17.285 24.242-17.285 39.994 0 6.539 1.143 12.812 3.24 18.628l-0.121-0.383c3.584 10.795 16.896 25.771 27.392 30.848 7.201 3.399 15.643 5.383 24.548 5.383 8.976 0 17.482-2.016 25.089-5.62l-0.356 0.152zM245.76 241.792c27.776-14.421 38.912-47.019 25.557-74.624-5.035-10.368-20.053-23.68-30.805-27.264-20.608-6.827-41.045-2.347-56.576 12.501-16.043 15.275-21.205 36.949-14.037 58.624 3.883 11.691 20.139 28.587 31.488 32.683 11.648 4.224 34.432 3.243 44.373-1.92z" />
<glyph unicode="&#xe92f;" glyph-name="gallery" d="M271.275 829.397c-67.755-10.581-123.648-63.275-139.307-131.371-2.944-12.885-3.115-26.709-3.115-250.027s0.171-237.141 3.115-250.027c11.221-48.768 43.392-90.923 86.315-113.152 20.907-10.795 34.091-15.232 54.571-18.347 24.405-3.669 453.888-3.669 478.293 0 74.933 11.992 133.009 71.386 142.882 145.991l0.094 0.868c2.603 21.376 2.603 447.957 0 469.333-7.851 64.128-53.333 119.467-115.669 140.672-25.301 8.576-27.264 8.661-268.16 8.491-177.835-0.128-227.456-0.64-239.019-2.432zM745.728 744.021c28.672-6.528 54.272-31.531 61.824-60.373 2.603-10.112 2.944-23.723 3.029-135.552l0.085-124.288-12.373 11.435c-31.061 28.8-57.685 40.32-93.44 40.405-37.035 0.085-64.043-11.648-96.939-42.112l-10.752-9.941-53.248 52.864c-29.269 29.099-58.368 56.491-64.597 60.885-19.803 14.776-44.758 23.657-71.787 23.657-0.772 0-1.543-0.007-2.312-0.022l0.115 0.002c-28.032 0-50.645-7.211-73.984-23.637-6.229-4.395-35.328-31.829-64.683-60.971l-53.333-52.992v124.587c0 135.339-0.085 133.931 9.6 153.045 5.845 11.52 24.576 30.251 36.096 36.053 19.285 9.813 7.979 9.387 250.923 9.472 197.077 0.128 225.493-0.213 235.776-2.517zM625.067 658.603c-14.677-5.419-27.733-23.808-27.733-39.083 0-25.344 22.955-45.909 48-42.965 34.389 4.096 49.621 46.464 25.728 71.723-10.709 11.264-31.019 15.829-45.995 10.325zM423.168 471.723c6.059-2.645 32.896-28.459 122.112-117.504 110.635-110.421 114.645-114.219 123.605-116.821 11.52-3.371 16-3.413 26.923-0.171 9.984 2.944 20.309 12.075 25.259 22.272 4.48 9.088 4.48 26.496 0.043 35.755-1.877 3.925-15.957 19.712-33.152 37.163l-29.867 30.293 9.301 9.429c11.776 11.947 24.832 18.603 36.523 18.517 16.555-0.085 22.101-4.139 66.219-48.085l40.533-40.405v-38.101c0-28.373-0.683-41.088-2.645-49.792-6.528-28.672-31.531-54.272-60.373-61.824-10.325-2.688-29.184-2.944-235.733-3.029-244.608-0.085-233.088-0.512-252.928 9.515-11.477 5.803-30.251 24.576-36.053 36.053-8.405 16.555-9.6 25.131-9.6 67.797v39.339l83.2 82.987c45.781 45.653 85.12 83.968 87.467 85.163 14.080 7.253 25.131 7.68 39.168 1.451z" />
<glyph unicode="&#xe930;" glyph-name="git-compare" d="M573.44 727.723c-5.163-2.005-94.763-90.923-98.261-97.451-1.477-3.427-2.336-7.416-2.336-11.605s0.859-8.179 2.411-11.801l-0.074 0.195c1.323-2.517 23.424-25.472 49.067-50.987 40.661-40.448 47.488-46.549 53.205-47.573 1.55-0.334 3.332-0.525 5.157-0.525 14.138 0 25.6 11.462 25.6 25.6 0 2.14-0.263 4.218-0.757 6.205l0.037-0.176c-1.109 4.907-6.4 11.264-24.96 29.867l-23.552 23.595 43.52-0.043c38.613-0.043 44.245-0.384 50.304-3.2 7.319-3.063 13.023-8.767 16.013-15.891l0.072-0.195c1.237-3.2 1.835-39.936 1.835-111.104v-106.283l-11.179-5.675c-13.781-6.997-30.549-24.192-37.12-38.144-4.801-10.341-7.601-22.447-7.601-35.206 0-4.47 0.344-8.859 1.006-13.143l-0.061 0.478c2.471-16.94 10.154-31.754 21.342-43.102l-0.009 0.009c18.304-19.541 37.76-27.221 65.493-25.771 20.992 1.109 36.949 8.405 52.48 23.936 18.731 18.773 26.027 40.789 22.955 69.504-2.645 24.747-19.755 48.811-43.349 60.928l-12.757 6.528v108.459c0 118.997-0.043 119.467-10.325 137.472-6.656 11.605-24.149 27.819-36.096 33.493-14.549 6.912-25.771 8.149-72.917 8.149h-43.605l23.552 23.595c25.301 25.344 27.861 29.653 25.003 42.283-3.243 14.379-20.053 23.040-34.091 17.579zM332.928 697.984c-20.608-5.803-42.539-24.448-51.883-44.16-4.728-10.33-7.485-22.409-7.485-35.131 0-12.759 2.773-24.871 7.748-35.765l-0.22 0.539c6.571-13.909 23.339-31.147 37.035-38.101l11.051-5.632 1.109-220.587 3.925-11.008c9.984-27.733 31.701-47.659 58.667-53.803 8.661-1.963 22.144-2.603 55.424-2.603h44.032l-21.589-21.76c-11.861-11.947-22.784-24.235-24.277-27.221-1.544-3.155-2.447-6.866-2.447-10.787 0-9.537 5.34-17.827 13.193-22.043l0.134-0.066c9.387-4.821 16.725-4.395 25.728 1.451 4.181 2.688 27.307 24.789 51.371 49.067 61.013 61.483 61.141 52.309-1.664 115.541-25.045 25.216-48.384 47.275-51.84 49.067-3.343 1.959-7.362 3.117-11.652 3.117-4.408 0-8.531-1.222-12.048-3.346l0.105 0.059c-7.987-4.282-13.327-12.572-13.327-22.109 0-3.921 0.903-7.632 2.512-10.935l-0.065 0.148c1.493-2.987 12.416-15.275 24.277-27.221l21.589-21.76h-42.965c-26.197 0-44.843 0.725-47.744 1.835-6.827 2.56-14.123 9.856-17.792 17.792-2.987 6.4-3.157 13.269-3.2 111.915l-0.043 105.045 10.624 5.035c23.723 11.179 42.795 37.291 45.483 62.208 4.096 38.315-12.288 69.248-45.227 85.589-13.525 6.699-15.232 7.125-31.787 7.637-11.989 0.427-20.395-0.213-26.752-2.005zM372.267 644.48c9.173-5.803 14.208-14.933 14.208-25.813 0-16.811-13.568-30.72-29.995-30.72-14.379 0-23.253 5.504-28.971 17.92-1.815 3.848-2.875 8.359-2.875 13.118 0 8.405 3.306 16.037 8.689 21.668l-0.011-0.012c9.259 10.027 26.496 11.776 38.955 3.84zM713.6 303.147c9.173-5.803 14.208-14.933 14.208-25.813 0-16.811-13.568-30.72-29.995-30.72-14.379 0-23.253 5.504-28.971 17.92-1.815 3.848-2.875 8.359-2.875 13.118 0 8.405 3.306 16.037 8.689 21.668l-0.011-0.012c9.259 10.027 26.496 11.776 38.955 3.84z" />
<glyph unicode="&#xe931;" glyph-name="heart" d="M316.587 761.941c-13.781-2.133-38.315-9.173-52.907-15.232-70.797-30.129-122.835-92.278-138.365-167.754l-0.259-1.504c-4.48-21.888-4.011-72.235 0.896-92.928 7.381-31.403 20.565-60.928 38.357-86.016 7.723-10.88 49.237-53.504 166.613-170.923 85.973-86.016 159.019-157.824 162.304-159.531 4.224-2.219 9.728-3.157 18.773-3.157 10.88-0.043 13.952 0.64 20.48 4.523 12.075 7.168 316.203 313.131 327.979 329.941 11.355 16.471 21.299 35.329 28.912 55.336l0.614 1.837c16.213 45.184 16.939 101.419 1.835 147.499-25.472 77.781-85.163 133.248-165.632 153.941-17.408 4.48-21.163 4.821-52.053 4.864-36.096 0.043-47.019-1.408-72.32-9.6-30.254-9.825-56.421-24.574-78.948-43.513l0.356 0.291-11.221-9.515-11.349 9.643c-28.117 23.851-62.208 40.491-101.291 49.493-13.355 3.115-67.883 4.608-82.773 2.304zM368.683 678.315c31.573-3.968 59.989-17.493 85.632-40.789 16.853-15.317 27.904-21.163 45.227-23.808 3.975-0.736 8.55-1.157 13.222-1.157 20.566 0 39.229 8.152 52.932 21.401l-0.021-0.021c14.635 13.611 27.264 22.699 41.045 29.611 19.006 9.864 41.495 15.649 65.335 15.649 22.792 0 44.35-5.288 63.513-14.703l-0.848 0.376c35.974-17.502 63.212-48.255 75.691-85.751l0.298-1.033c4.565-13.781 5.675-20.053 6.4-36.821 1.024-23.424-1.109-38.272-8.363-58.197-10.837-29.867-7.339-25.941-157.867-176.725l-138.88-139.093-138.88 139.093c-149.035 149.291-146.688 146.688-157.227 174.72-6.017 15.523-9.503 33.488-9.503 52.267s3.486 36.744 9.847 53.283l-0.343-1.016c18.731 49.877 66.091 86.4 120.192 92.757 16.427 1.92 16.853 1.92 32.597-0.043z" />
<glyph unicode="&#xe932;" glyph-name="info-corners" d="M276.352 828.885c-20.864-5.461-39.723-20.053-51.712-40.149-11.904-19.84-11.307-4.181-11.307-298.411 0-222.805 0.427-267.648 2.475-281.472 9.472-62.677 54.016-115.413 115.072-136.192 25.003-8.491 29.44-8.661 242.688-8.661 224.512 0 210.432-0.811 224.171 12.928 13.995 14.037 12.928-15.232 12.885 351.317 0 355.669 0.427 339.371-9.685 358.059-8.146 13.717-18.969 25.017-31.83 33.47l-0.383 0.237c-20.651 12.459-6.4 11.776-256.725 11.776-206.635 0-225.323-0.213-235.648-2.901zM725.333 448v-298.667h-176.299c-191.787 0-185.131-0.299-204.715 9.6-11.477 5.803-30.251 24.576-36.053 36.053-10.112 19.925-9.6 4.907-9.6 290.048v261.632h426.667v-298.667zM499.413 659.669c-8.558-3.389-15.736-8.689-21.262-15.399l-0.071-0.089c-5.308-6.927-8.505-15.714-8.505-25.248 0-11.773 4.876-22.407 12.718-29.994l0.011-0.011c7.656-7.799 18.309-12.633 30.092-12.633 16.825 0 31.348 9.857 38.109 24.111l0.109 0.256c2.54 5.3 4.024 11.521 4.024 18.089 0 16.365-9.214 30.578-22.736 37.735l-0.232 0.112c-7.595 3.883-24.619 5.504-32.256 3.072zM455.381 487.979c-15.488-4.779-28.715-23.168-28.715-39.979 0-17.28 13.184-35.243 29.44-40.064 4.779-1.451 9.728-2.603 10.965-2.603 1.835 0 2.261-12.715 2.261-67.115 0-76.672 0.171-77.867 13.056-90.752 10.795-10.752 18.901-12.8 50.944-12.8 32.171 0 40.149 2.005 51.072 12.928 7.808 7.808 12.928 19.627 12.928 29.739 0 17.152-13.312 35.285-29.44 40.064-3.091 1.061-6.788 1.968-10.591 2.555l-0.375 0.048c-1.835 0-2.261 12.544-2.261 66.261 0 76.672-0.299 78.848-12.928 91.477-11.051 11.008-18.859 12.971-51.797 12.8-18.005-0.085-29.141-0.896-34.56-2.56z" />
<glyph unicode="&#xe933;" glyph-name="info-warning" d="M472.747 872.747c-79.957-7.040-158.848-38.571-225.28-89.984-18.645-14.464-55.765-51.584-70.229-70.229-76.8-99.243-106.88-221.653-84.309-343.296 12.373-66.816 40.917-129.707 84.309-185.771 14.464-18.645 51.584-55.765 70.229-70.229 104.149-80.597 232.661-109.483 360.107-80.853 106.112 23.851 202.752 91.477 262.187 183.509 34.389 53.205 54.741 107.819 64.896 174.080 4.181 27.349 4.181 88.704 0 116.053-12.16 79.275-39.936 144.555-87.893 206.507-14.464 18.645-51.584 55.765-70.229 70.229-88.192 68.224-194.304 99.669-303.787 89.984zM547.499 787.541c68.807-7.896 130.189-34.717 180.209-75.060l-0.668 0.521c15.104-12.203 43.819-41.472 54.869-55.936 44.231-57.29 71.031-130.011 71.424-208.976v-0.091c-0.392-81.758-29.112-156.733-76.84-215.689l0.509 0.649c-12.203-15.104-41.472-43.819-55.936-54.869-57.29-44.231-130.011-71.031-208.976-71.424h-0.091c-79.055 0.393-151.776 27.193-209.872 72.022l0.806-0.598c-14.464 11.051-43.733 39.765-55.936 54.869-47.432 58.101-76.17 133.086-76.17 214.783 0 53.965 12.539 105.002 34.863 150.355l-0.89-2.002c16.29 34.347 37.156 63.727 62.256 88.88l-0.006-0.006c27.097 28.551 59.129 52.099 94.782 69.339l1.943 0.847c43.554 21.541 94.83 34.144 149.050 34.144 12.211 0 24.273-0.639 36.155-1.886l-1.482 0.126zM498.048 658.645c-11.136-3.413-22.741-15.275-26.112-26.752-3.968-13.355-3.883-186.411 0.128-198.144 5.291-15.488 23.424-28.416 39.936-28.416 10.112 0 21.931 5.12 29.739 12.928 13.013 13.056 12.928 12.203 12.928 115.072s0.085 102.016-12.928 115.072c-11.904 11.904-26.88 15.403-43.691 10.24zM497.835 326.187c-36.779-10.325-48.853-57.515-21.675-84.693 10.325-10.325 20.267-14.293 35.84-14.379 21.291-0.128 37.376 9.899 46.336 28.885 18.56 39.168-18.389 82.048-60.501 70.187z" />
</font>
</defs>
</svg>
